Ивановский Торрент трекер
Яндекс.Погода
 

[Цитировать]
palych74

Rammstein - Live Aus Saint Petersburg 2012-02-13- Жанр: Industrial
Продолжительность: 01:43:05
Год выпуска: 2012
Доп. информация: Съемка производилась из танц-партера.
За съёмку концерта и выложенный исходник, огромная благодарность SHOCKER 999-Качество: HDCamRip 720p
Контейнер: MKV
Видео кодек: H.264
Аудио кодек: AC3
Видео: MPEG4 Video (H264), 1280x720, 6000 kbps, 50fps
Аудио: Dolby AC3, 256kbps, 48000Hz, stereo

MediaInfo

General
Unique ID : 243731549577452182087069977789895450712 (0xB75CFD2D4A17878F9D744418719EA058)
Complete name : E:\Rammstein - Live Aus Saint Petersburg 2012-02-13 [720p]\18 Rammstein - Mein Herz Brennt (Live Aus Saint-Petersburg 2012-02-13).mkv
Format : Matroska
Format version : Version 2
File size : 393 MiB
Duration : 8mn 45s
Overall bit rate : 6 267 Kbps
Encoded date : UTC 2012-03-31 13:33:29
Writing application : mkvmerge v5.3.0 ('I could have danced') built on Feb 9 2012 10:38:07
Writing library : libebml v1.2.3 + libmatroska v1.3.0
Video
ID : 1
Format : AVC
Format/Info : Advanced Video Codec
Format profile : High@L4.1
Format settings, CABAC : Yes
Format settings, ReFrames : 4 frames
Codec ID : V_MPEG4/ISO/AVC
Duration : 8mn 45s
Bit rate : 6 000 Kbps
Width : 1 280 pixels
Height : 720 pixels
Display aspect ratio : 16:9
Frame rate : 50.000 fps
Color space : YUV
Chroma subsampling : 4:2:0
Bit depth : 8 bits
Scan type : Progressive
Bits/(Pixel*Frame) : 0.130
Stream size : 369 MiB (94%)
Writing library : x264 core 120 r2164 da19765
Encoding settings : cabac=1 / ref=3 / deblock=1:0:0 / analyse=0x3:0x113 / me=hex / subme=7 / psy=1 / psy_rd=1.00:0.00 / mixed_ref=1 / me_range=16 / chroma_me=1 / trellis=1 / 8x8dct=1 / cqm=0 / deadzone=21,11 / fast_pskip=1 / chroma_qp_offset=-2 / threads=3 / sliced_threads=0 / nr=0 / decimate=1 / interlaced=0 / bluray_compat=0 / constrained_intra=0 / bframes=3 / b_pyramid=2 / b_adapt=1 / b_bias=0 / direct=1 / weightb=1 / open_gop=0 / weightp=2 / keyint=500 / keyint_min=50 / scenecut=40 / intra_refresh=0 / rc_lookahead=40 / rc=2pass / mbtree=1 / bitrate=6000 / ratetol=1.0 / qcomp=0.60 / qpmin=0 / qpmax=69 / qpstep=4 / cplxblur=20.0 / qblur=0.5 / ip_ratio=1.40 / aq=1:1.00
Language : German
Default : Yes
Forced : No
Audio
ID : 2
Format : AC-3
Format/Info : Audio Coding 3
Mode extension : CM (complete main)
Codec ID : A_AC3
Duration : 8mn 45s
Bit rate mode : Constant
Bit rate : 256 Kbps
Channel(s) : 2 channels
Channel positions : Front: L R
Sampling rate : 48.0 KHz
Bit depth : 16 bits
Compression mode : Lossy
Stream size : 16.0 MiB (4%)
Language : German
Default : Yes
Forced : No

Треклист:

01 - Intro
02 - Sonne
03 - Wollt ihr das Bett in Flammen sehen? (cut)
04 - Keine Lust
05 - Sehnsucht
06 - Asche zu Asche
07 - Feuer Frei
08 - Mutter
09 - Mein Teil
10 - Du riechst so gut
11 - Links 2 3 4
12 - Du hast
13 - Haifisch
14 - B�ck dich
15 - Mann gegen Mann
16 - Ohne dich
17 - Mein Herz brennt
18 - Amerika
19 - Ich will
20 - Engel
21 - Pussy


Показать сообщения:    

Текущее время: 14-Дек 15:15

Часовой пояс: UTC ± 0


Вы не можете начинать темы
Вы не можете отвечать на сообщения
Вы не можете редактировать свои сообщения
Вы не можете удалять свои сообщения
Вы не можете голосовать в опросах
Вы не можете прикреплять файлы к сообщениям
Вы не можете скачивать файлы

!ВНИМАНИЕ!
Сайт не предоставляет электронные версии произведений, а занимается лишь коллекционированием и каталогизацией ссылок, присылаемых и публикуемых на форуме нашими читателями. Если вы являетесь правообладателем какого-либо представленного материала и не желаете, чтобы ссылка на него находилась в нашем каталоге, свяжитесь с нами, и мы незамедлительно удалим ее. Файлы для обмена на трекере предоставлены пользователями сайта, и администрация не несет ответственности за их содержание. Просьба не заливать файлы, защищенные авторскими правами, а также файлы нелегального содержания!