Важное объявление!
У Нас Все раздачи мультитрекерные, при нуле пиров в релизах, можете смело вставать на закачку!
 
Автор Сообщение

HUNTER

Стаж:
4 года 9 месяцев
Сообщений:
65047

Репутация: 101

[+] [-]
Вне форума [Профиль] [ЛС]

Rammstein - Live at Wacken Open Air-Год выпуска: 2013-08-01
Страна: Германия
Жанр: Industrial
Продолжительность: 00:19:57-Описание:
Видео с концерта, который прошел 2 августа 2013 года в рамках фестиваля Wacken Open Air в Вакене, Германия, завершивший тур «Made in Germany».
-Треклист:
01. Interview with Christoph Schneider
02. Wiener Blut
03. Du Riechst So Gut
04. Links 2-3-4
-Качество: HDTV 720p
Формат: TS
Видео кодек: AVC
Аудио кодек: MP2
Видео: AVC 1280x720 50 FPS 11,9 Mbit/s
Аудио: MP2 256 kbit/s 48.0 KHz; 2 channels
Аудио 2: AC3 448 kbit/s 48.0 KHz; 2 channels

Отчёт MediaInfo / BDInfo

General
ID : 16 (0x10)
Complete name : D:\Rammstein - 2013-08-01 Wacken HDTV 720p (3 songs).ts
Format : MPEG-TS
File size : 1.85 GiB
Duration : 19mn 57s
Overall bit rate mode : Variable
Overall bit rate : 13.3 Mbps
Video
ID : 6410 (0x190A)
Menu ID : 11140 (0x2B84)
Format : AVC
Format/Info : Advanced Video Codec
Format profile : [url=mailto:High@L4.0]High@L4.0[/url]
Format settings, CABAC : Yes
Format settings, ReFrames : 6 frames
Codec ID : 27
Duration : 19mn 57s
Bit rate : 11.9 Mbps
Width : 1 280 pixels
Height : 720 pixels
Display aspect ratio : 16:9
Frame rate : 50.000 fps
Color space : YUV
Chroma subsampling : 4:2:0
Bit depth : 8 bits
Scan type : Progressive
Bits/(Pixel*Frame) : 0.258
Stream size : 1.66 GiB (90%)
Color primaries : BT.709
Transfer characteristics : BT.709
Matrix coefficients : BT.709
Audio #1
ID : 6420 (0x1914)
Menu ID : 11140 (0x2B84)
Format : MPEG Audio
Format version : Version 1
Format profile : Layer 2
Codec ID : 4
Duration : 19mn 57s
Bit rate mode : Constant
Bit rate : 256 Kbps
Channel(s) : 2 channels
Sampling rate : 48.0 KHz
Compression mode : Lossy
Delay relative to video : 50ms
Stream size : 36.6 MiB (2%)
Language : German
Language, more info : Clean effects
Audio #2
ID : 6422 (0x1916)
Menu ID : 11140 (0x2B84)
Format : AC-3
Format/Info : Audio Coding 3
Mode extension : CM (complete main)
Format settings, Endianness : Big
Codec ID : 6
Duration : 19mn 57s
Bit rate mode : Constant
Bit rate : 448 Kbps
Channel(s) : 2 channels
Channel positions : Front: L R
Sampling rate : 48.0 KHz
Bit depth : 16 bits
Compression mode : Lossy
Delay relative to video : 149ms
Stream size : 64.0 MiB (3%)
Language : German
Language, more info : Clean effects

Скриншоты


_________________
Показать сообщения:    

Текущее время: Сегодня 01:31

Часовой пояс: GMT



Вы не можете начинать темы
Вы не можете отвечать на сообщения
Вы не можете редактировать свои сообщения
Вы не можете удалять свои сообщения
Вы не можете голосовать в опросах
Вы не можете прикреплять файлы к сообщениям
Вы не можете скачивать файлы