Ивановский Торрент трекер
Яндекс.Погода
 

[Цитировать]
HUNTER

Пятница«Все ждем пятницу!»- Страна: Россия
Студии: Централ Партнершип, RSS Production
Жанр: Комедия
Год выпуска: 2016-Дата мировой премьеры: 23 марта 2016
Дата российской премьеры: 26 февраля 2016, «Централ Партнершип»
Дата выхода DVD релиза: 4 июня 2016, «НД Плэй»-Продолжительность: 01:23:26
Перевод: Оригинал [Лицензия]
Cубтитры: Нет
Оригинальная аудиодорожка: Русская-Режиссер: Евгений Шелякин
Продюсеры: Рашид Сардаров, Бинке Анисимов, Ибрагим Магомедов
Актеры: Данила Козловский, Сергей Бурунов, Настасья Самбурская, Катерина Шпица, Павел Деревянко, Кирилл Плетнёв, Евгения Брик, Антон Шагин, Ян Цапник, Евгений Стычкин-Описание:
Что если азартный миллионер на одну ночь станет официантом, офисный лузер будет звездой самой яркой вечеринки, а двум «заклятым» друзьям придется искать кенгуру ночью в подмосковном лесу? У каждого своя пятница! Как она закончится для каждого, знает только утро субботы.- -Качество: DVD5 (сжатый)
Формат: DVD-Video
Видео: MPEG-2, 720x576@1024x576 (PAL 16:9), ~7081 Кбит/сек
Аудио: AC3 5.1, 448 Кбит/сек [Русский]

DVDInfo

Title: Пятница (2016) DVD5
Size: 4.37 Gb ( 4 580 026,00 KBytes ) - DVD-5
Enabled regions: 1, 2, 3, 4, 5, 6, 7, 8
VTS_01 :
Play Length: 00:00:00
Video: PAL 4:3 (720x576) VBR
Audio:
Not specified (Dolby AC3, 2 ch)
VTS_02 :
Play Length: 01:23:26
Video: PAL 16:9 (720x576) VBR, Auto Letterboxed
Audio:
Russian (Dolby AC3, 6 ch)
* Menus Information *
VIDEO_TS Menu
Video:
NTSC 4:3 (720x480) VBR
Auto Pan&Scan, Auto Letterboxed
English Language Unit :
Title Menu
VTS_01 Menu
Video:
PAL 16:9 (720x576) VBR
Auto Letterboxed
Audio:
Not specified (Dolby AC3, 2 ch)
English Language Unit :
Root Menu
Chapter (PTT) Menu
VTS_02 Menu
Video:
NTSC 4:3 (720x480) VBR
Auto Pan&Scan, Auto Letterboxed
English Language Unit :
Root Menu
Chapter (PTT) Menu

MediaInfo

Общее
Полное имя : G:\Видео\Пятница (2016) DVD5\VIDEO_TS\VTS_02_2.VOB
Формат : MPEG-PS
Размер файла : 1024 Мбайт
Продолжительность : 18 м.
Режим общего битрейта : Переменный
Общий поток : 7682 Кбит/сек
Видео
Идентификатор : 224 (0xE0)
Формат : MPEG Video
Версия формата : Version 2
Профиль формата : Main@Main
Параметр BVOP формата : Да
Параметр матрицы формата : Выборочная
Параметр GOP формата : M=3, N=12
Продолжительность : 18 м.
Вид битрейта : Переменный
Битрейт : 7081 Кбит/сек
Максимальный битрейт : 9000 Кбит/сек
Ширина : 720 пикселей
Высота : 576 пикселей
Соотношение сторон : 16:9
Частота кадров : 25,000 кадров/сек
Стандарт вещания : PAL
Цветовое пространство : YUV
Субдискретизация насыщенности : 4:2:0
Битовая глубина : 8 бит
Тип развёртки : Прогрессивная
Порядок развёртки : Нижнее поле первое
Метод сжатия : С потерями
Бит/(Пиксели*Кадры) : 0.683
Временной код первого кадра : 00:18:58:17
Оригинал временного кода : Group of pictures header
GOP, открыто/закрыто : Открыто
GOP, открыто/закрыто на первом кадре : Закрыто
Размер потока : 944 Мбайт (92%)
Аудио
Идентификатор : 189 (0xBD)-128 (0x80)
Формат : AC-3
Формат/Информация : Audio Coding 3
Расширение режима : CM (complete main)
Параметр Endianness формата : Big
Режим смешивания : DVD-Video
Продолжительность : 18 м.
Вид битрейта : Постоянный
Битрейт : 448 Кбит/сек
Каналы : 6 каналов
Расположение каналов : Front: L C R, Side: L R, LFE
Частота : 48,0 КГц
Частота кадров : 31,250 кадров/сек (1536 spf)
Метод сжатия : С потерями
Задержка видео : -312 мс.
Размер потока : 59,7 Мбайт (6%)
Меню

Доп. информация

Исходник: http://rutracker.org/forum/viewtopic.php?t=5280791
Удалены: предупреждающая надпись, бонусы. (в меню кнопки затёрты).
Команды диска переписаны заново, оставлено два VTS.
Видео сжато на 5,0%
Меню: статичное, недействующие кнопки затерты и закрыты.
Обработка и сжатие: DVD ReMake Pro + DVD Rebuilder + CCE SP2 [7 проходов] + Работа с меню (Adobe PhotoShop и MuxMan).
Скриншот финального проекта:

Лог кодирования DVD Rebuilder
-----------------
[13:48:41] Phase I, PREPARATION started.
- DVD-RB v1.28.2
- AVISYNTH 2.6.0.6
- CCE 1.0.1.9 encoder selected.
- Source: PYATNITSA (2016) DVD5
- VTS_02: 2 351 915 sectors.
-- Scanning and writing .D2V & .AVS files
-- Processed 125 156 frames.
-- Building .AVS and .ECL files
- Reduction Level for DVD-5: 95,0%
- Overall Bitrate : 6 824Kbs
- Space for Video : 4 170 164KB
- Redistributing using Base_Q: 15
- HIGH/LOW/TYPICAL Bitrates: 7 939/1 704/6 824 Kbs
[13:51:41] Phase I, PREPARATION completed in 3 minutes.
- WARNING: Viewer/Editor settings are over target.
[13:52:52] Phase II ENCODING started
- Creating M2V for VTS_02 segment 0
- Creating M2V for VTS_02 segment 1
- Creating M2V for VTS_02 segment 2
- Creating M2V for VTS_02 segment 3
- Creating M2V for VTS_02 segment 4
- Creating M2V for VTS_02 segment 5
- Creating M2V for VTS_02 segment 6
- Extracting Video for VTS_02 segment 7
- Creating M2V for VTS_02 segment 8
[14:38:22] Phase II ENCODING completed in 46 minutes.
- WARNING: Viewer/Editor settings are over target.
[14:38:39] Phase III, REBUILD started.
- Copying IFO, BUP, and unaltered files...
- Processing VTS_02
- Reading/processing TMAP table...
- Rebuilding seg 0 VOBID 1 CELLID 1
- Rebuilding seg 1 VOBID 1 CELLID 2
- Rebuilding seg 2 VOBID 1 CELLID 3
- Rebuilding seg 3 VOBID 1 CELLID 4
- Rebuilding seg 4 VOBID 1 CELLID 5
- Rebuilding seg 5 VOBID 1 CELLID 6
- Rebuilding seg 6 VOBID 1 CELLID 7
- Rebuilding seg 7 VOBID 1 CELLID 8
- Rebuilding seg 8 VOBID 1 CELLID 9
- Updating NAVPACKS for VOBID_01
- Updated VTS_C_ADT.
- Updated VTS_VOBU_ADMAP.
- Updated IFO: VTS_02_0.IFO
- Updating TMAP table...
- Correcting VTS Sectors...
[14:53:43] Phase III, REBUILD completed in 15 minutes.
Done.
-

Скриншоты меню

Скриншоты фильма



Показать сообщения:    

Текущее время: 16-Дек 16:44

Часовой пояс: UTC ± 0


Вы не можете начинать темы
Вы не можете отвечать на сообщения
Вы не можете редактировать свои сообщения
Вы не можете удалять свои сообщения
Вы не можете голосовать в опросах
Вы не можете прикреплять файлы к сообщениям
Вы не можете скачивать файлы

!ВНИМАНИЕ!
Сайт не предоставляет электронные версии произведений, а занимается лишь коллекционированием и каталогизацией ссылок, присылаемых и публикуемых на форуме нашими читателями. Если вы являетесь правообладателем какого-либо представленного материала и не желаете, чтобы ссылка на него находилась в нашем каталоге, свяжитесь с нами, и мы незамедлительно удалим ее. Файлы для обмена на трекере предоставлены пользователями сайта, и администрация не несет ответственности за их содержание. Просьба не заливать файлы, защищенные авторскими правами, а также файлы нелегального содержания!