Ивановский Торрент трекер
Яндекс.Погода
 

[Цитировать]
HUNTER

Путь Карлито / Carlito's Way
Страна: США
Студия: Bregman/Baer Productions
Жанр: криминальная драма
Год выпуска: 1993
Продолжительность: 02:24:11
Перевод: Профессиональный (многоголосый закадровый)
Субтитры: русские
Оригинальная аудиодорожка: английский
Режиссер: Брайан Де Пальма / Brian De Palma
В ролях: Аль Пачино, Шон Пенн, Пенелопа Энн Миллер, Луис Гусман, Джеймс Ребхорн, Вигго Мортенсен, Ричард Форонджи, Джозеф Сираво, Адриан Пасдар, Хорхе Порсель, Ингрид Роджерс, Джон Легуизамо, Хайме Санчес, Пол Мазурски, Винсент Пасторе...
Описание: 70-е годы. Крупный наркоделец Карлито Бриганте вышел из тюрьмы, где отбыл пять лет. Теперь, возвращаясь в испанский квартал Нью-Йорка к любимой женщине, он хочет все бросить и начать честную жизнь. Однако криминальное прошлое и просьба близкого друга, адвоката Клейнфилда, ввязавшегося в опасную авантюру, неудержимо тянут Карлито в пучину гибели…
Награды и номинации: Золотой глобус, 1994 год
Номинации:
Лучшая мужская роль второго плана (Шон Пенн)
Лучшая женская роль второго плана (Пенелопа Энн Миллер)
Доп. информация: Пиратский DVD из собственной коллекции. Предполагаю, копия релиза "Амальгамы".
Отличается большим наполнением кадра!

Бонусы: Типа есть. Реклама.
Меню: Русское, частично анимированное, озвученное.
Сэмпл: http://sendfile.su/1474290
Тип релиза: DVD9
Контейнер: DVD-Video
Видео: MPEG 2, PAL, 720х576, VBR, 4:3, 5826 Кбит/сек, 25,000 кадров/сек
Аудио: Русский, АС-3, 5 channels, 48.0 kHz, 448 kb/s
Аудио 2: Английский, АС-3, 5 channels, 48.0 kHz, 448 kb/s
Формат субтитров: prerendered (DVD/IDX+SUB)

MediaInfo

Общее
Полное имя : G:\torrents\Carlito's Way\VTS_01_1.VOB
Формат : MPEG-PS
Размер файла : 1024 Мбайт
Продолжительность : 20 м. 52 с.
Режим общего битрейта : Переменный
Общий поток : 6858 Кбит/сек
Видео
Идентификатор : 224 (0xE0)
Формат : MPEG Video
Версия формата : Version 2
Профиль формата : Main@Main
Настройки формата : CustomMatrix / BVOP
Параметр BVOP формата : Да
Параметр матрицы формата : Выборочная
Параметр GOP формата : M=3, N=9
Структура изображения : Frame
Продолжительность : 20 м. 52 с.
Вид битрейта : Переменный
Битрейт : 5826 Кбит/сек
Максимальный битрейт : 7200 Кбит/сек
Ширина : 704 пикселя
Высота : 576 пикселей
Соотношение сторон : 4:3
Частота кадров : 25,000 кадров/сек
Стандарт вещания : PAL
Цветовое пространство : YUV
Субдискретизация насыщенности : 4:2:0
Битовая глубина : 8 бит
Тип развёртки : Чересстрочная
Порядок развёртки : Верхнее поле первое
Метод сжатия : С потерями
Бит/(Пиксели*Кадры) : 0.575
Временной код первого кадра : 00:00:19:00
Оригинал временного кода : Group of pictures header
GOP, открыто/закрыто : Закрыто
Размер потока : 870 Мбайт (85%)
Аудио #1
Идентификатор : 189 (0xBD)-128 (0x80)
Формат : AC-3
Формат/Информация : Audio Coding 3
Режим смешивания : DVD-Video
Продолжительность : 20 м. 44 с.
Вид битрейта : Постоянный
Битрейт : 448 Кбит/сек
Каналы : 5 каналов
Расположение каналов : Front: L C R, Side: L R
Частота : 48,0 КГц
Частота кадров : 31,250 кадров/сек (1536 SPF)
Битовая глубина : 16 бит
Метод сжатия : С потерями
Задержка видео : 7 с. 875 мс.
Размер потока : 66,4 Мбайт (6%)
ServiceKind/String : Complete Main
Аудио #2
Идентификатор : 189 (0xBD)-129 (0x81)
Формат : AC-3
Формат/Информация : Audio Coding 3
Режим смешивания : DVD-Video
Продолжительность : 20 м. 44 с.
Вид битрейта : Постоянный
Битрейт : 448 Кбит/сек
Каналы : 5 каналов
Расположение каналов : Front: L C R, Side: L R
Частота : 48,0 КГц
Частота кадров : 31,250 кадров/сек (1536 SPF)
Битовая глубина : 16 бит
Метод сжатия : С потерями
Задержка видео : 7 с. 875 мс.
Размер потока : 66,4 Мбайт (6%)
ServiceKind/String : Complete Main
Текст
Идентификатор : 189 (0xBD)-32 (0x20)
Формат : RLE
Формат/Информация : Run-length encoding
Режим смешивания : DVD-Video
Меню

DVDInfo

Title: Carlito's Way
Size: 7.30 Gb ( 7 653 340,00 KBytes ) - DVD-9
Enabled regions: 1, 2, 3, 4, 5, 6, 7, 8
VTS_01 :
Play Length: 02:24:11
Video: PAL 4:3 (720x576) VBR
Audio:
Russian (Dolby AC3, 5 ch)
English (Dolby AC3, 5 ch)
Subtitles:
Russian
VTS_02 :
Play Length: 00:00:06
Video: PAL 4:3 (720x576) VBR
VTS_03 :
Play Length: 00:00:14
Video: PAL 4:3 (720x576) VBR
Audio:
English (Dolby AC3, 6 ch)
VTS_04 :
Play Length: 00:00:11
Video: PAL 4:3 (720x576) VBR
Audio:
English (Dolby AC3, 6 ch)
VTS_05 :
Play Length: 00:01:55
Video: PAL 4:3 (720x576) VBR
Audio:
English (Dolby AC3, 2 ch)
* Menus Information *
VIDEO_TS Menu
Video:
PAL 4:3 (720x576) VBR
English Language Unit :
Title Menu
VTS_01 Menu
Video:
PAL 4:3 (720x576) VBR
Audio:
Not specified (Dolby AC3, 2 ch)
English Language Unit :
Root Menu
VTS_02 Menu
Video:
PAL 4:3 (720x576) VBR
English Language Unit :
Root Menu
VTS_03 Menu
Video:
PAL 4:3 (720x576) VBR
English Language Unit :
Root Menu
VTS_04 Menu
Video:
PAL 4:3 (720x576) VBR
English Language Unit :
Root Menu
VTS_05 Menu
Video:
PAL 4:3 (720x576) VBR
English Language Unit :
Root Menu

Скриншоты меню

Скриншот с названием фильма



Показать сообщения:    

Текущее время: 18-Фев 14:20

Часовой пояс: UTC ± 0


Вы не можете начинать темы
Вы не можете отвечать на сообщения
Вы не можете редактировать свои сообщения
Вы не можете удалять свои сообщения
Вы не можете голосовать в опросах
Вы не можете прикреплять файлы к сообщениям
Вы не можете скачивать файлы

!ВНИМАНИЕ!
Сайт не предоставляет электронные версии произведений, а занимается лишь коллекционированием и каталогизацией ссылок, присылаемых и публикуемых на форуме нашими читателями. Если вы являетесь правообладателем какого-либо представленного материала и не желаете, чтобы ссылка на него находилась в нашем каталоге, свяжитесь с нами, и мы незамедлительно удалим ее. Файлы для обмена на трекере предоставлены пользователями сайта, и администрация не несет ответственности за их содержание. Просьба не заливать файлы, защищенные авторскими правами, а также файлы нелегального содержания!