Ивановский Торрент трекер
Яндекс.Погода
DL-List and Torrent activity
None
 
     
 
 

[Quote]
димитри37


Протоколы войны
Год выпуска: 2013
Страна: Россия
Жанр: документальный
Продолжительность: 00:52:18
Перевод: Не требуется
Русские субтитры: нет
Режиссеры: Сергей Швыдкой, Людмила Снигирева
Описание: В основе фильма – уникальные интервью с бойцами, записанные во время Великой Отечественной войны. Член-корреспондент АН СССР Исаак Минц и его коллеги, рискуя жизнью, вели протоколы прямо в окопах и блиндажах. И взяли интервью у семнадцати тысячи человек. После войны весь архив было приказано уничтожить. Понимая его ценность, сотрудники Института российской истории РАН тайно сохранили материалы. Они были обнаружены только в 2012-м году. Самые неожиданные, яркие и показательные истории из этого уникального архива озвучивают известные артисты. В фильме принимают участие немногие дожившие до наших дней ветераны, протоколы бесед с которыми сохранились в архиве.
В фильме принимают участие: Сергей Шакуров, Николай Чиндяйкин, Евгений Цыганов, Екатерина Климова, Светлана Иванова, Алексей Литвиненко, Никита Ефремов, сотрудники института Российской истории РАН, ветераны Великой Отечественной войны.
Продюсеры: Данила Шарапов, Олег Вольнов
Автор сценария: Екатерина Алябьева
качество: SATRip
формат: AVI
Видео: 720x400 (1.80:1), 25 fps, XviD MPEG-4 ~1744 kbps avg, 0.24 bit/pixel
Аудио: 48 kHz, MPEG Layer 3, 2 ch, ~128.00 kbps avg

MediaInfo

Формат : AVI
Формат/Информация : Audio Video Interleave
Размер файла : 704 Мбайт
Продолжительность : 52 м.
Общий поток : 1883 Кбит/сек
Библиотека кодирования : VirtualDub build 30009/release
Видео
Идентификатор : 0
Формат : MPEG-4 Visual
Профиль формата : Advanced Simple@L5
Параметр BVOP формата : 2
Параметр QPel формата : Нет
Параметр GMC формата : Без точки перехода
Параметр матрицы формата : Default (MPEG)
Режим смешивания : Сжатый битовый поток
Идентификатор кодека : XVID
Идентификатор кодека/Подсказка : XviD
Продолжительность : 52 м.
Битрейт : 1745 Кбит/сек
Ширина : 720 пикселей
Высота : 400 пикселей
Соотношение сторон : 16:9
Частота кадров : 25,000 кадров/сек
Цветовое пространство : YUV
Субдискретизация насыщенности : 4:2:0
Битовая глубина : 8 бит
Тип развёртки : Прогрессивная
Метод сжатия : С потерями
Бит/(Пиксели*Кадры) : 0.242
Размер потока : 653 Мбайт (93%)
Библиотека кодирования : XviD 64
Аудио
Идентификатор : 1
Формат : MPEG Audio
Версия формата : Version 1
Профиль формата : Layer 3
Режим : Joint stereo
Расширение режима : MS Stereo
Идентификатор кодека : 55
Идентификатор кодека/Подсказка : MP3
Продолжительность : 52 м.
Вид битрейта : Постоянный
Битрейт : 128 Кбит/сек
Каналы : 2 канала
Частота : 48,0 КГц
Метод сжатия : С потерями
Размер потока : 47,9 Мбайт (7%)
Выравнивание : Разделение по промежуткам
Продолжительность промежутка : 40 мс. (1,00 видеокадр)
Время предзагрузки промежутка : 500 мс.

Скриншоты

-


Display posts:    

Current time is: 27-Jan 03:48

All times are UTC ± 0


You cannot post new topics in this forum
You cannot reply to topics in this forum
You cannot edit your posts in this forum
You cannot delete your posts in this forum
You cannot vote in polls in this forum
You cannot attach files in this forum
You cannot download files in this forum

!ATTENTION!
The site does not give electronic versions of products, and is engaged only in a collecting and cataloguing of the references sent and published at a forum by our readers. If you are the legal owner of any submitted material and do not wish that the reference to it was in our catalogue, contact us and we shall immediately remove her. Files for an exchange on tracker are given by users of a site, and the administration does not bear the responsibility for their maintenance. The request to not fill in the files protected by copyrights, and also files of the illegal maintenance!