Ивановский Торрент трекер
Яндекс.Погода
Статистика раздачи
Размер:  4.81 GB   |    Зарегистрирован:  5 месяцев 13 дней   |    Скачан:  0 раз
Сидов:  35  [  0 KB/s  ]   Личеров:  9  [  0 KB/s  ]   Подробная статистика пиров
 
     
 
 

[Цитировать]
HUNTER

Прощай, Кристофер Робин / Goodbye Christopher Robin
Страна: Великобритания
Жанр: семейный, биография, история
Год выпуска: 2017
Продолжительность: 01:47:01
Перевод: Профессиональный (многоголосый закадровый) iTunes
Субтитры: английские, русские (Nautay)
Оригинальная аудиодорожка: английский
Режиссер: Саймон Кертис / Simon Curtis
В ролях: Донал Глисон, Марго Робби, Келли Макдоналд, Вики Пеппердин, Уилл Тилстон, Алекс Лоутер, Стивен Кэмпбелл Мур, Ричард МакКейб, Джеральдин Сомервилль, Мосси Смит…
Описание: Картина расскажет о взаимоотношениях между А. А. Милном и его сыном Кристофером Робином, чьи игрушки вдохновили писателя на создание волшебного мира повестей о Винни-Пухе.
Сэмпл: https://yadi.sk/i/_jPtkAqN3ZMPSR

Тип релиза: BDRip 720p
Контейнер: MKV
Видео: AVC / 1280x688 / 23.976 fps / 5404 Kbps / High@L4.1
Аудио 1: Rus AC3 5.1 / 48 kHz / 384 kbps / 16-bit
Аудио 2: Eng AC3 5.1 / 48 kHz / 640 kbps / 16-bit
Формат субтитров: softsub (SRT)

MediaInfo

Общее
Уникальный идентификатор : 214525214492213045996444679847192888527 (0xA1640DAE5A5A6FEBEC2AB42EC2E504CF)
Полное имя : C:\u_download\Goodbye.Christopher.Robin.2017.BDRip.720p.Rus.Eng.mkv
Формат : Matroska
Версия формата : Version 4 / Version 2
Размер файла : 4,81 Гбайт
Продолжительность : 1 ч. 47 м.
Общий поток : 6431 Кбит/сек
Название фильма : Goodbye Christopher Robin (2017)
Дата кодирования : UTC 2018-01-19 17:47:38
Программа кодирования : mkvmerge v20.0.0 ('I Am The Sun') 64-bit
Библиотека кодирования : libebml v1.3.5 + libmatroska v1.4.8
Видео
Идентификатор : 1
Формат : AVC
Формат/Информация : Advanced Video Codec
Профиль формата : High@L4.1
Настройки формата : CABAC / 8 Ref Frames
Параметр CABAC формата : Да
Параметр RefFrames формата : 8 кадров
Идентификатор кодека : V_MPEG4/ISO/AVC
Продолжительность : 1 ч. 47 м.
Битрейт : 5404 Кбит/сек
Ширина : 1280 пикселей
Высота : 688 пикселей
Соотношение сторон : 1,85:1
Режим частоты кадров : Постоянный
Частота кадров : 23,976 (24000/1001) кадра/сек
Цветовое пространство : YUV
Субдискретизация насыщенности : 4:2:0
Битовая глубина : 8 бит
Тип развёртки : Прогрессивная
Бит/(Пиксели*Кадры) : 0.256
Размер потока : 4,04 Гбайт (84%)
Библиотека кодирования : x264 core 152 r2851 ba24899
Настройки программы : cabac=1 / ref=8 / deblock=1:-3:-3 / analyse=0x3:0x133 / me=umh / subme=11 / psy=1 / psy_rd=1.00:0.15 / mixed_ref=1 / me_range=24 / chroma_me=1 / trellis=2 / 8x8dct=1 / cqm=0 / deadzone=21,11 / fast_pskip=0 / chroma_qp_offset=-3 / threads=8 / lookahead_threads=1 / sliced_threads=0 / nr=0 / decimate=1 / interlaced=0 / bluray_compat=0 / constrained_intra=0 / bframes=8 / b_pyramid=2 / b_adapt=2 / b_bias=0 / direct=1 / weightb=1 / open_gop=0 / weightp=2 / keyint=240 / keyint_min=23 / scenecut=40 / intra_refresh=0 / rc_lookahead=40 / rc=crf / mbtree=0 / crf=16.5 / qcomp=0.60 / qpmin=0 / qpmax=69 / qpstep=4 / vbv_maxrate=50000 / vbv_bufsize=62500 / crf_max=0.0 / nal_hrd=none / filler=0 / ip_ratio=1.40 / pb_ratio=1.30 / aq=2:0.80
Язык : English
Default : Да
Forced : Нет
Аудио #1
Идентификатор : 2
Формат : AC-3
Формат/Информация : Audio Coding 3
Идентификатор кодека : A_AC3
Продолжительность : 1 ч. 46 м.
Вид битрейта : Постоянный
Битрейт : 384 Кбит/сек
Каналы : 6 каналов
Расположение каналов : Front: L C R, Side: L R, LFE
Частота : 48,0 КГц
Частота кадров : 31,250 кадров/сек (1536 SPF)
Битовая глубина : 16 бит
Метод сжатия : С потерями
Размер потока : 294 Мбайт (6%)
Заголовок : MVO iTunes
Язык : Russian
ServiceKind/String : Complete Main
Default : Да
Forced : Нет
Аудио #2
Идентификатор : 3
Формат : AC-3
Формат/Информация : Audio Coding 3
Идентификатор кодека : A_AC3
Продолжительность : 1 ч. 47 м.
Вид битрейта : Постоянный
Битрейт : 640 Кбит/сек
Каналы : 6 каналов
Расположение каналов : Front: L C R, Side: L R, LFE
Частота : 48,0 КГц
Частота кадров : 31,250 кадров/сек (1536 SPF)
Битовая глубина : 16 бит
Метод сжатия : С потерями
Размер потока : 490 Мбайт (10%)
Язык : English
ServiceKind/String : Complete Main
Default : Нет
Forced : Нет
Текст #1
Идентификатор : 4
Формат : UTF-8
Идентификатор кодека : S_TEXT/UTF8
Идентификатор кодека/Информация : UTF-8 Plain Text
Продолжительность : 1 ч. 43 м.
Битрейт : 105 бит/сек
ElementCount : 1788
Размер потока : 79,7 Кбайт (0%)
Заголовок : full by Nautay
Язык : Russian
Default : Нет
Forced : Нет
Текст #2
Идентификатор : 5
Формат : UTF-8
Идентификатор кодека : S_TEXT/UTF8
Идентификатор кодека/Информация : UTF-8 Plain Text
Продолжительность : 1 ч. 43 м.
Битрейт : 66 бит/сек
ElementCount : 1788
Размер потока : 50,4 Кбайт (0%)
Заголовок : full
Язык : English
Default : Нет
Forced : Нет

x264, md5

x264:
---[Information] [18.01.2018 16:58:44] x264 [info]: frame I:1577 Avg QP:15.10 size:175446
---[Information] [18.01.2018 16:58:44] x264 [info]: frame P:30703 Avg QP:16.56 size: 61739
---[Information] [18.01.2018 16:58:44] x264 [info]: frame B:121662 Avg QP:18.54 size: 17797
---[Information] [18.01.2018 16:58:44] x264 [info]: consecutive B-frames: 1.8% 1.3% 4.7% 19.9% 17.0% 37.8% 9.6% 3.0% 5.0%
BDRip: file hash md5: EF5F3D3349340430FEC3A80BAC5AA9E2
Sample: file hash md5: F3C2F4B79FC952A5938884549855B493

Скриншоты

BDRip: Original (Crop+Resize): Original:
[box] [/box][box] [/box]

[box] [/box][box] [/box]

[box] [/box][box] [/box]

[box] [/box][box] [/box]

[box] [/box][box] [/box]

[box] [/box][box] [/box]
[iv-torrents.ru].t82652.torrent
Торрент: Зарегистрирован [ 2018-08-05 17:06 ] · 0B5E0911CF4695051BF47A192612688F61B452D0

Скачать .torrent

Скачать

13 KB

Статус: проверено
Скачан: 0 раз
Размер: 4.81 GB
terms.php
Похожие темы


Показать сообщения:    

Текущее время: 19-Янв 10:44

Часовой пояс: UTC ± 0


Вы не можете начинать темы
Вы не можете отвечать на сообщения
Вы не можете редактировать свои сообщения
Вы не можете удалять свои сообщения
Вы не можете голосовать в опросах
Вы не можете прикреплять файлы к сообщениям
Вы можете скачивать файлы

!ВНИМАНИЕ!
Сайт не предоставляет электронные версии произведений, а занимается лишь коллекционированием и каталогизацией ссылок, присылаемых и публикуемых на форуме нашими читателями. Если вы являетесь правообладателем какого-либо представленного материала и не желаете, чтобы ссылка на него находилась в нашем каталоге, свяжитесь с нами, и мы незамедлительно удалим ее. Файлы для обмена на трекере предоставлены пользователями сайта, и администрация не несет ответственности за их содержание. Просьба не заливать файлы, защищенные авторскими правами, а также файлы нелегального содержания!