Ивановский Торрент трекер
Яндекс.Погода
Статистика раздачи
Размер:  14.08 GB   |    Зарегистрирован:  7 месяцев 18 дней   |    Скачан:  2 раза
DL-List: Нет

Полного источника не было: Никогда

 
     
 
 
 

[Цитировать]
HUNTER

Прощай, Кристофер Робин / Goodbye Christopher Robin
Страна: Великобритания
Жанр: семейный, биография, история
Год выпуска: 2017
Продолжительность: 01:47:01
Перевод: Профессиональный (многоголосый закадровый) iTunes
Субтитры: английские, русские (Nautay)
Оригинальная аудиодорожка: английский
Режиссер: Саймон Кертис / Simon Curtis
В ролях: Донал Глисон, Марго Робби, Келли Макдоналд, Вики Пеппердин, Уилл Тилстон, Алекс Лоутер, Стивен Кэмпбелл Мур, Ричард МакКейб, Джеральдин Сомервилль, Мосси Смит…
Описание: Картина расскажет о взаимоотношениях между А. А. Милном и его сыном Кристофером Робином, чьи игрушки вдохновили писателя на создание волшебного мира повестей о Винни-Пухе.
Сэмпл: https://yadi.sk/i/7mE86F1c3ZMo6P

Тип релиза: BDRip 1080p
Контейнер: MKV
Видео: Видео: AVC / 1920x1036 / 23.976 fps / 16,9 Mbps / High@L4.1
Аудио 1: Rus AC3 5.1 / 48 kHz / 384 kbps / 16-bit
Аудио 2: Eng DTS 5.1 / 48 kHz / 1510 kbps / 24-bit
Формат субтитров: softsub (SRT)

MediaInfo

Общее
Уникальный идентификатор : 134400905816504155667180630851338441696 (0x651CAC439951B0087EE6C0C505ED13E0)
Полное имя : C:\u_download\Goodbye.Christopher.Robin.2017.BDRip.1080p.Rus.Eng.mkv
Формат : Matroska
Версия формата : Version 4 / Version 2
Размер файла : 14,1 Гбайт
Продолжительность : 1 ч. 47 м.
Общий поток : 18,8 Мбит/сек
Дата кодирования : UTC 2018-01-19 19:00:55
Программа кодирования : mkvmerge v20.0.0 ('I Am The Sun') 64-bit
Библиотека кодирования : libebml v1.3.5 + libmatroska v1.4.8
Видео
Идентификатор : 1
Формат : AVC
Формат/Информация : Advanced Video Codec
Профиль формата : High@L4.1
Настройки формата : CABAC / 4 Ref Frames
Параметр CABAC формата : Да
Параметр RefFrames формата : 4 кадра
Идентификатор кодека : V_MPEG4/ISO/AVC
Продолжительность : 1 ч. 47 м.
Битрейт : 16,9 Мбит/сек
Ширина : 1920 пикселей
Высота : 1036 пикселей
Соотношение сторон : 1,85:1
Режим частоты кадров : Постоянный
Частота кадров : 23,976 (24000/1001) кадра/сек
Цветовое пространство : YUV
Субдискретизация насыщенности : 4:2:0
Битовая глубина : 8 бит
Тип развёртки : Прогрессивная
Бит/(Пиксели*Кадры) : 0.355
Размер потока : 12,7 Гбайт (90%)
Библиотека кодирования : x264 core 152 r2851 ba24899
Настройки программы : cabac=1 / ref=4 / deblock=1:-3:-3 / analyse=0x3:0x133 / me=umh / subme=11 / psy=1 / psy_rd=1.00:0.15 / mixed_ref=1 / me_range=24 / chroma_me=1 / trellis=2 / 8x8dct=1 / cqm=0 / deadzone=21,11 / fast_pskip=0 / chroma_qp_offset=-3 / threads=8 / lookahead_threads=1 / sliced_threads=0 / nr=0 / decimate=1 / interlaced=0 / bluray_compat=0 / constrained_intra=0 / bframes=6 / b_pyramid=2 / b_adapt=2 / b_bias=0 / direct=1 / weightb=1 / open_gop=0 / weightp=2 / keyint=240 / keyint_min=23 / scenecut=40 / intra_refresh=0 / rc_lookahead=40 / rc=crf / mbtree=0 / crf=16.9 / qcomp=0.60 / qpmin=0 / qpmax=69 / qpstep=4 / vbv_maxrate=50000 / vbv_bufsize=62500 / crf_max=0.0 / nal_hrd=none / filler=0 / ip_ratio=1.40 / pb_ratio=1.30 / aq=2:0.80
Язык : English
Default : Да
Forced : Нет
Аудио #1
Идентификатор : 2
Формат : AC-3
Формат/Информация : Audio Coding 3
Идентификатор кодека : A_AC3
Продолжительность : 1 ч. 46 м.
Вид битрейта : Постоянный
Битрейт : 384 Кбит/сек
Каналы : 6 каналов
Расположение каналов : Front: L C R, Side: L R, LFE
Частота : 48,0 КГц
Частота кадров : 31,250 кадров/сек (1536 SPF)
Битовая глубина : 16 бит
Метод сжатия : С потерями
Размер потока : 294 Мбайт (2%)
Заголовок : MVO iTunes
Язык : Russian
ServiceKind/String : Complete Main
Default : Да
Forced : Нет
Аудио #2
Идентификатор : 3
Формат : DTS
Формат/Информация : Digital Theater Systems
Идентификатор кодека : A_DTS
Продолжительность : 1 ч. 47 м.
Вид битрейта : Постоянный
Битрейт : 1510 Кбит/сек
Каналы : 6 каналов
Расположение каналов : Front: L C R, Side: L R, LFE
Частота : 48,0 КГц
Частота кадров : 93,750 кадра/сек (512 SPF)
Битовая глубина : 24 бит
Метод сжатия : С потерями
Размер потока : 1,13 Гбайт (8%)
Язык : English
Default : Нет
Forced : Нет
Текст #1
Идентификатор : 4
Формат : UTF-8
Идентификатор кодека : S_TEXT/UTF8
Идентификатор кодека/Информация : UTF-8 Plain Text
Продолжительность : 1 ч. 43 м.
Битрейт : 105 бит/сек
ElementCount : 1788
Размер потока : 79,7 Кбайт (0%)
Заголовок : full by NauTay
Язык : Russian
Default : Нет
Forced : Нет
Текст #2
Идентификатор : 5
Формат : UTF-8
Идентификатор кодека : S_TEXT/UTF8
Идентификатор кодека/Информация : UTF-8 Plain Text
Продолжительность : 1 ч. 43 м.
Битрейт : 66 бит/сек
ElementCount : 1788
Размер потока : 50,4 Кбайт (0%)
Заголовок : full
Язык : English
Default : Нет
Forced : Нет

x264, md5

x264:
---[Information] [18.01.2018 5:47:42] x264 [info]: frame I:1517 Avg QP:15.56 size:378794
---[Information] [18.01.2018 5:47:42] x264 [info]: frame P:30527 Avg QP:16.61 size:168240
---[Information] [18.01.2018 5:47:42] x264 [info]: frame B:121898 Avg QP:18.59 size: 64711
---[Information] [18.01.2018 5:47:42] x264 [info]: consecutive B-frames: 1.6% 1.4% 4.0% 14.7% 21.2% 46.2% 10.9%
BDRip: file hash md5: 9BFE252217EB432464C946EA7992C3BC
Sample: file hash md5: CACBCE97379F1A18E64540F2316740E5

Скриншоты

BDRip: Original:
[box] [/box]

[box] [/box]

[box] [/box]

[box] [/box]

[box] [/box]

[box] [/box]
[iv-torrents.ru].t82653.torrent
Торрент: Зарегистрирован [ 2018-08-05 17:06 ] · 1BC7059F77D3A0C2CA600518E808466A1D7C5AD8

Скачать .torrent

Скачать

36 KB

Статус: проверено
Скачан: 2 раз
Размер: 14.08 GB
terms.php
Похожие темы


Показать сообщения:    

Текущее время: 24-Мар 06:56

Часовой пояс: UTC ± 0


Вы не можете начинать темы
Вы не можете отвечать на сообщения
Вы не можете редактировать свои сообщения
Вы не можете удалять свои сообщения
Вы не можете голосовать в опросах
Вы не можете прикреплять файлы к сообщениям
Вы можете скачивать файлы

!ВНИМАНИЕ!
Сайт не предоставляет электронные версии произведений, а занимается лишь коллекционированием и каталогизацией ссылок, присылаемых и публикуемых на форуме нашими читателями. Если вы являетесь правообладателем какого-либо представленного материала и не желаете, чтобы ссылка на него находилась в нашем каталоге, свяжитесь с нами, и мы незамедлительно удалим ее. Файлы для обмена на трекере предоставлены пользователями сайта, и администрация не несет ответственности за их содержание. Просьба не заливать файлы, защищенные авторскими правами, а также файлы нелегального содержания!