Ивановский Торрент трекер
Яндекс.Погода
 

[Quote]
HUNTER

Приключения Тинтина: Тайна Единорога / The Adventures of Tintin
Страна: США, Новая Зеландия
Жанр: мультфильм, боевик, приключения
Год выпуска: 2011
Продолжительность: 01:46:51
Перевод: Авторский (одноголосый закадровый) Юрий Сербин
Субтитры: нет
Режиссёр: Стивен Спилберг / Steven Spielberg
Роли озвучивали: Джейми Белл, Энди Серкис, Дэниэл Крэйг, Саймон Пегг, Ник Фрост, Дэниэл Мейс, Гад Эльмалех, Тоби Джонс, Джо Старр
Описание: Приключение, которое захватывает дух. В центре событий честный, хороший и немного любопытный репортер Тинтин и его песик по кличке Снежок. Приключения находят молодого репортера тогда, когда в один ясный и теплый день он покупает в антикварном магазине красивую и необычную модель корабля. Вот тут-то и появляются опасные пираты, а также развязный и своевольный капитан «Единорога». Волею случая молодой репортер Тинтин становится обладателем тайны, которая может погубить или сделать счастливым любого человека. Ему предстоит пережить самое настоящее морское приключение, отыскать сокровища и сразиться за них с беспощадными пиратами. Суровые и интересные испытания, выпавшие Тинтину, способны сделать его сильнее духом или просто убить. Справится ли отважный репортер со всеми трудностями? Что сможет противопоставить его чистая и честная душа против неистовой злобы и алчности кровожадных пиратов?
Доп. информация: Выражаю огромную благодарность Нордеру за синхронизацию звуковой дорожки
Семпл: http://multi-up.com/1184344
Качество: BDRip (Исходник BDRemux 1080p)
Формат: AVI
Видео: XviD 73, 720x304, (2,35:1), 23,976 fps, 1503 Кбит/с, 8 бит, 0.29 bit/pixel
Аудио: Русский (АС3, 6 ch (Front: L C R, Side: L R, LFE), 48,0 KHz, 448 Kbps)

MediaInfo

Общее
Полное имя : H:\Фильмы на трекер\Приключения Тинтина - Тайна Единорога (мультфильм, приключения 2011 год).avi
Формат : AVI
Формат/Информация : Audio Video Interleave
Размер файла : 1,46 Гбайт
Продолжительность : 1 ч. 46 м.
Общий поток : 1961 Кбит/сек
Программа кодирования : VirtualDubMod 1.5.10.2 (build 2540/release)
Библиотека кодирования : VirtualDubMod build 2540/release
Видео
Идентификатор : 0
Формат : MPEG-4 Visual
Профиль формата : Advanced [email protected]
Параметр BVOP формата : 2
Параметр QPel формата : Нет
Параметр GMC формата : Без точки перехода
Параметр матрицы формата : Выборочная
Идентификатор кодека : XVID
Идентификатор кодека/Подсказка : XviD
Продолжительность : 1 ч. 46 м.
Битрейт : 1503 Кбит/сек
Ширина : 720 пикселей
Высота : 304 пикселя
Соотношение сторон : 2,35:1
Частота кадров : 23,976 (23976/1000) кадра/сек
Цветовое пространство : YUV
Субдискретизация насыщенности : 4:2:0
Битовая глубина : 8 бит
Тип развёртки : Прогрессивная
Метод сжатия : С потерями
Бит/(Пиксели*Кадры) : 0.286
Размер потока : 1,12 Гбайт (77%)
Библиотека кодирования : XviD 73
Аудио
Идентификатор : 1
Формат : AC-3
Формат/Информация : Audio Coding 3
Расширение режима : CM (complete main)
Параметр Endianness формата : Big
Идентификатор кодека : 2000
Продолжительность : 1 ч. 46 м.
Вид битрейта : Постоянный
Битрейт : 448 Кбит/сек
Каналы : 6 каналов
Расположение каналов : Front: L C R, Side: L R, LFE
Частота : 48,0 КГц
Частота кадров : 31,250 кадров/сек (1536 spf)
Метод сжатия : С потерями
Размер потока : 342 Мбайт (23%)
Выравнивание : Разделение по промежуткам
Продолжительность промежутка : 42 мс. (1,00 видеокадр)
Время предзагрузки промежутка : 500 мс.

Скриншот c названием фильма

Скриншоты



Display posts:    

Current time is: 11-Aug 01:36

All times are UTC ± 0


You cannot post new topics in this forum
You cannot reply to topics in this forum
You cannot edit your posts in this forum
You cannot delete your posts in this forum
You cannot vote in polls in this forum
You cannot attach files in this forum
You cannot download files in this forum

!ATTENTION!
The site does not give electronic versions of products, and is engaged only in a collecting and cataloguing of the references sent and published at a forum by our readers. If you are the legal owner of any submitted material and do not wish that the reference to it was in our catalogue, contact us and we shall immediately remove her. Files for an exchange on tracker are given by users of a site, and the administration does not bear the responsibility for their maintenance. The request to not fill in the files protected by copyrights, and also files of the illegal maintenance!