Ивановский Торрент трекер
Яндекс.Погода
 

[Quote]
HUNTER

Приключения кота в сапогах / The Adventures of Puss in Boots
Страна: США
Жанр: Мультсериал, комедия, приключения, семейный
Продолжительность серии: 13 х ~ 00:22:00
Год выпуска: 2017
Перевод: Профессиональный (дублированный) - СТС / СВ-Дубль
Русские субтитры: нет
Режиссёр: Даг Лэнгдэйл
Роли озвучивали: Эрик Бауза, Грей ДеЛайл, Карла Хименес, Арибелла Макана, Джейма Мейс, Лорейн Ньюмен, Пол Ругг, Джошуа Раш, Фрэнк Уэлкер, Дэнни Трехо
Описание: Известный по серии мультфильмов "Шрек" Кот в Сапогах решает отправиться в зачарованный город Сан-Лоренцо. Город этот скрыт в мифических землях и невидим для внешнего мира. Он охраняется мощными заклинаниями, которые охраняют его жителей и их чудесное сокровище от всяческих посягательств. Но поскольку наш герой - это Кот в сапогах - не был бы он самим собой, если бы случайно не разрушил столь важные для города чары. И теперь он должен не только защитить Сан-Лоренцо от легионов захватчиков и грабителей, но и исправить свою ошибку, вернув волшебной земле её защитную магию. Кто на это способен? Конечно, только настоящий герой!

Качество: WEB-DL 1080p
Формат: MKV
Видео: MPEG-4 AVC, 1920x1080 [16:9], 25.000 fps, ~ 3800 Kbps
Аудио 1: [Русский] AC3, 48 kHz, 2 ch, 192 Kbps - СТС / СВ-Дубль
Аудио 2: [Английский] AC3, 48 kHz, 6 ch, 640 Kbps
Субтитры: Английские (Full)
Ссылка на предыдущие и альтернативные раздачи
1 сезон
2 сезон
3 сезон
4 сезон
5 сезон
6 сезон

Релиз

Релиз TeamHD - BenderBEST
• Работа c дорогой - BenderBEST

MediaInfo

Общее
Уникальный идентификатор : 239776335263586828742908831153060882446 (0xB4633E0E2F8DE22CB58A0C203258A80E)
Полное имя : S:\The.Adventures.of.Puss.in.Boots.1080p.NF.WEB-DL.Rus.Eng_TeamHD\The.Adventures.of.Puss.in.Boots.S04.1080p.NF.WEB-DL.Rus.Eng_TeamHD\The.Adventures.of.Puss.in.Boots.S04E01.Familiar.Feeling.1080p.NF.WEB-DL.Rus.Eng_TeamHD.mkv
Формат : Matroska
Версия формата : Version 4 / Version 2
Размер файла : 772 Мбайт
Продолжительность : 22 м.
Режим общего битрейта : Переменный
Общий поток : 4731 Кбит/сек
Название фильма : The Adventures of Puss in Boots S04E01 - ReJliz TeamHD by BenderBEST
Дата кодирования : UTC 2020-04-23 19:23:57
Программа кодирования : mkvmerge v8.3.0 ('Over the Horizon') 64bit
Библиотека кодирования : libebml v1.3.1 + libmatroska v1.4.2
Видео
Идентификатор : 1
Формат : AVC
Формат/Информация : Advanced Video Codec
Профиль формата : [email protected]
Параметр CABAC формата : Да
Параметр ReFrames формата : 3 кадра
Идентификатор кодека : V_MPEG4/ISO/AVC
Продолжительность : 22 м.
Вид битрейта : Переменный
Битрейт : 3830 Кбит/сек
Максимальный битрейт : 5745 Кбит/сек
Ширина : 1920 пикселей
Высота : 1080 пикселей
Соотношение сторон : 16:9
Режим частоты кадров : Постоянный
Частота кадров : 25,000 кадров/сек
Цветовое пространство : YUV
Субдискретизация насыщенности : 4:2:0
Битовая глубина : 8 бит
Тип развёртки : Прогрессивная
Бит/(Пиксели*Кадры) : 0.074
Размер потока : 636 Мбайт (82%)
Библиотека кодирования : x264 core 118
Настройки программы : cabac=1 / ref=3 / deblock=1:0:0 / analyse=0x1:0x111 / me=umh / subme=10 / psy=1 / psy_rd=1.00:0.00 / mixed_ref=1 / me_range=24 / chroma_me=1 / trellis=2 / 8x8dct=0 / cqm=0 / deadzone=21,11 / fast_pskip=1 / chroma_qp_offset=-2 / threads=6 / sliced_threads=0 / nr=0 / decimate=1 / interlaced=0 / bluray_compat=0 / constrained_intra=0 / bframes=2 / b_pyramid=0 / b_adapt=2 / b_bias=0 / direct=3 / weightb=1 / open_gop=0 / weightp=2 / keyint=48 / keyint_min=25 / scenecut=0 / intra_refresh=0 / rc_lookahead=0 / rc=2pass / mbtree=1 / bitrate=3830 / ratetol=1.0 / qcomp=0.50 / qpmin=6 / qpmax=51 / qpstep=4 / cplxblur=20.0 / qblur=0.5 / vbv_maxrate=5745 / vbv_bufsize=7660 / nal_hrd=vbr / ip_ratio=1.40 / aq=1:1.00
Язык : English
Default : Да
Forced : Да
Аудио #1
Идентификатор : 2
Формат : AC-3
Формат/Информация : Audio Coding 3
Расширение режима : CM (complete main)
Параметр Endianness формата : Big
Идентификатор кодека : A_AC3
Продолжительность : 22 м.
Вид битрейта : Постоянный
Битрейт : 192 Кбит/сек
Каналы : 2 канала
Расположение каналов : Front: L R
Частота : 48,0 КГц
Частота кадров : 31,250 кадров/сек (1536 spf)
Метод сжатия : С потерями
Размер потока : 31,0 Мбайт (4%)
Заголовок : AC3 2.0 @ 192 kbps - DUB, СТС / СВ-Дубль
Язык : Russian
Default : Да
Forced : Да
Аудио #2
Идентификатор : 3
Формат : AC-3
Формат/Информация : Audio Coding 3
Расширение режима : CM (complete main)
Параметр Endianness формата : Big
Идентификатор кодека : A_AC3
Продолжительность : 22 м.
Вид битрейта : Постоянный
Битрейт : 640 Кбит/сек
Каналы : 6 каналов
Расположение каналов : Front: L C R, Side: L R, LFE
Частота : 48,0 КГц
Частота кадров : 31,250 кадров/сек (1536 spf)
Метод сжатия : С потерями
Размер потока : 104 Мбайт (14%)
Заголовок : AC3 5.1 @ 640 kbps
Язык : English
Default : Нет
Forced : Нет
Текст
Идентификатор : 4
Формат : UTF-8
Идентификатор кодека : S_TEXT/UTF8
Идентификатор кодека/Информация : UTF-8 Plain Text
Продолжительность : 21 м.
Битрейт : 89 бит/сек
Count of elements : 422
Размер потока : 14,3 Кбайт (0%)
Язык : English
Default : Нет
Forced : Нет

Скриншоты




Display posts:    

Current time is: 05-Aug 17:11

All times are UTC ± 0


You cannot post new topics in this forum
You cannot reply to topics in this forum
You cannot edit your posts in this forum
You cannot delete your posts in this forum
You cannot vote in polls in this forum
You cannot attach files in this forum
You cannot download files in this forum

!ATTENTION!
The site does not give electronic versions of products, and is engaged only in a collecting and cataloguing of the references sent and published at a forum by our readers. If you are the legal owner of any submitted material and do not wish that the reference to it was in our catalogue, contact us and we shall immediately remove her. Files for an exchange on tracker are given by users of a site, and the administration does not bear the responsibility for their maintenance. The request to not fill in the files protected by copyrights, and also files of the illegal maintenance!