Ивановский Торрент трекер
Яндекс.Погода
 

[Quote]
HUNTER

Познакомьтесь с Уолли Спарксом / Meet Wally Sparks
Страна: США
Производство: Largo Entertainment
Жанр: Комедия
Год выпуска: 1997
Продолжительность: 01:45:52
Перевод: Авторский (одноголосый закадровый) Павел Санаев
Перевод 2: Профессиональный (многоголосый закадровый) ТНТ
Субтитры: русские, английские
Оригинальная аудиодорожка: английский
Режиссер: Питер Болдуин / Peter Baldwin
Сценарий: Гарри Бейзил, Родни Дейнджерфилд
Продюсер: Лесли Грейф, Родни Дейнджерфилд, Гарри Бейзил, ...
Оператор: Ричард Х. Клайн
Композитор: Мишель Коломбье
Художник: Брайан Джонс, Стив Карман, Александра Уэлкер, ...
Монтаж: Рауль Давалос
В ролях: Родни Дейнджрфилд, Деби Мейзар, Дэвид Огден Стайерз, Берт Рейнолдс, Рита МакКензи, Лиза Торнхилл, Марк Л. Тейлор, Синди Уильямс, Гилберт Готтфрид, Тони Данца, ...
Описание: Ведущие развлекательных телепрограмм Америки стараются всеми способами перещеголять друг друга. У любимца публики — Уолли Спаркса нет проблем: он доводит шутками людей до истерики. Но однажды заходит слишком далеко, «пройдясь» по губернатору. Шоу оказывается под угрозой. И Уолли бросается в бой — он не тот человек, которого можно остановить!
Доп. информация: Наконец-то нашёл на просторах Сети HD релиз моего любимого фильма! Качество меня более чем порадовало. Прикрутил русские дорожки и спешу поделиться со всеми своей радостью (и фильмом заодно!)
Сэмпл: https://yadi.sk/i/WYK2klaL3Rq7FB
Тип релиза: WEB-DL 1080p
Контейнер: MKV
Видео: H.264, 1920x1080, 16:9, 23.976fps, 11.8Mbps
Аудио: Русский, 48 kHz, AC3 Dolby Digital, 2.0 ch, ~192.00 kbps AVO Авторский одноголосый Павел Санаев
Аудио 2: Русский, 48 kHz, AC3 Dolby Digital, 2.0 ch, ~192.00 kbps MVO «ТНТ»
Аудио 3: Английский, 48 kHz, E-AC3 Dolby Digital 5.1 ch ~640 kbps
Формат субтитров: softsub (SRT)

MediaInfo

General
Unique ID : 73886757618345799938697330509749728059 (0x37961267FA7C5CECF00CEA5DDF74B33B)
Complete name : C:\Users\Doronetty\Downloads\Meet.Wally.Sparks.1997.1080p.AMZN.WEB-DL.DD+5.1.H.264-monkee.mkv
Format : Matroska
Format version : Version 4 / Version 2
File size : 9.49 GiB
Duration : 1h 45mn
Overall bit rate mode : Variable
Overall bit rate : 12.8 Mbps
Encoded date : UTC 2018-01-27 10:12:03
Writing application : mkvmerge v20.0.0 ('I Am The Sun') 64-bit
Writing library : libebml v1.3.5 + libmatroska v1.4.8
Video
ID : 1
Format : AVC
Format/Info : Advanced Video Codec
Format profile : [email protected]
Format settings, CABAC : Yes
Format settings, ReFrames : 4 frames
Codec ID : V_MPEG4/ISO/AVC
Duration : 1h 45mn
Bit rate mode : Variable
Bit rate : 11.8 Mbps
Maximum bit rate : 15.0 Mbps
Width : 1 920 pixels
Height : 1 080 pixels
Display aspect ratio : 16:9
Frame rate mode : Constant
Frame rate : 23.976 (24000/1001) fps
Color space : YUV
Chroma subsampling : 4:2:0
Bit depth : 8 bits
Scan type : Progressive
Bits/(Pixel*Frame) : 0.238
Stream size : 8.73 GiB (92%)
Default : Yes
Forced : No
Color range : Limited
Color primaries : BT.709
Transfer characteristics : BT.709
Matrix coefficients : BT.709
Audio #1
ID : 2
Format : AC-3
Format/Info : Audio Coding 3
Mode extension : CM (complete main)
Format settings, Endianness : Big
Codec ID : A_AC3
Duration : 1h 45mn
Bit rate mode : Constant
Bit rate : 192 Kbps
Channel(s) : 2 channels
Channel positions : Front: L R
Sampling rate : 48.0 KHz
Frame rate : 31.250 fps (1536 spf)
Compression mode : Lossy
Stream size : 145 MiB (1%)
Title : AVO Sanaev AC3 2.0 192 kbps
Language : Russian
Default : Yes
Forced : No
Audio #2
ID : 3
Format : AC-3
Format/Info : Audio Coding 3
Format profile : Dolby Digital
Mode extension : CM (complete main)
Format settings, Endianness : Big
Codec ID : A_AC3
Duration : 1h 45mn
Bit rate mode : Constant
Bit rate : 192 Kbps
Channel(s) : 2 channels
Channel positions : Front: L R
Sampling rate : 48.0 KHz
Frame rate : 31.250 fps (1536 spf)
Compression mode : Lossy
Stream size : 145 MiB (1%)
Title : MVO TNT AC3 2.0 192 kbps
Language : Russian
Default : No
Forced : No
Audio #3
ID : 4
Format : E-AC-3
Format/Info : Audio Coding 3
Format settings, Endianness : Big
Codec ID : A_EAC3
Duration : 1h 45mn
Bit rate mode : Constant
Bit rate : 640 Kbps
Channel(s) : 6 channels
Channel positions : Front: L C R, Side: L R, LFE
Sampling rate : 48.0 KHz
Frame rate : 187.500 fps (256 spf)
Compression mode : Lossy
Stream size : 485 MiB (5%)
Title : Original E-AC3 5.1 650 kbps
Language : English
Default : No
Forced : No
Text #1
ID : 5
Format : UTF-8
Codec ID : S_TEXT/UTF8
Codec ID/Info : UTF-8 Plain Text
Duration : 1h 40mn
Bit rate : 114 bps
Count of elements : 1826
Stream size : 84.1 KiB (0%)
Language : Russian
Default : No
Forced : No
Text #2
ID : 6
Format : UTF-8
Codec ID : S_TEXT/UTF8
Codec ID/Info : UTF-8 Plain Text
Duration : 1h 42mn
Bit rate : 92 bps
Count of elements : 2556
Stream size : 69.1 KiB (0%)
Language : English
Default : No
Forced : No

Скриншоты



Display posts:    

Current time is: 09-Jul 10:29

All times are UTC ± 0


You cannot post new topics in this forum
You cannot reply to topics in this forum
You cannot edit your posts in this forum
You cannot delete your posts in this forum
You cannot vote in polls in this forum
You cannot attach files in this forum
You cannot download files in this forum

!ATTENTION!
The site does not give electronic versions of products, and is engaged only in a collecting and cataloguing of the references sent and published at a forum by our readers. If you are the legal owner of any submitted material and do not wish that the reference to it was in our catalogue, contact us and we shall immediately remove her. Files for an exchange on tracker are given by users of a site, and the administration does not bear the responsibility for their maintenance. The request to not fill in the files protected by copyrights, and also files of the illegal maintenance!