Ивановский Торрент трекер
Яндекс.Погода
DL-List and Torrent activity
None
 
     
 
 

[Quote]
HUNTER

Потерянное звено / Missing Link
«Очень большое мохнатое доброе научное открытие»
- Страна: США, Канада
Production Co: Laika Entertainment, Digital One See
Жанр: мультфильм, фэнтези, комедия, приключения, семейный
Год выпуска: 2019
Продолжительность: 01:34:25-Перевод: Профессиональный (дублированный) | iTunes
Субтитры: Rus (Forced), Eng (Forced, SDH)
Оригинальная аудиодорожка: Eng-Режиссер: Крис Батлер / Chris Butler-В ролях:
Хью Джекман, Дэвид Уоллиамс, Стивен Фрай, Мэтт Лукас, Зак Галифианакис, Тимоти Олифант, Зои Салдана, Эмма Томпсон, Амрита Ачария, Чинг Валдес-Аран-Описание:Бесстрашный натуралист и исследователь Лайонел Фрост поставил перед собой задачу рассказать миру о существовании разных созданий, о которых говорят только в легендах. Его новым открытием становится Линк, так называемое «недостающее звено», связывающее человечество с его предками по эволюционной лестнице.-
«Потерянное звено» (англ. Missing Link) — полнометражный кукольный анимационный фильм, выполненный по технологии stop motion. Главных героев картины озвучили Хью Джекман, Зои Салдана и Тимоти Олифант-Релиз:


IMDb: 6.70 (14 747)
Sample
Качество видео: BDRip-AVC | Missing.Link.2019.BDREMUX 1080p
Формат видео: MKV
Видео: AVC 2889 kb/s 1104 x 460 (2.400) 23.976 fps
Аудио: AC-3 384 kb/s 6 channels, 48.0 kHz | RUS DUB iTunes
Аудио 2: AC-3 448 kb/s 6 channels, 48.0 kHz | ENG

MediaInfo | Log

Log

x264 [info]: frame I:1284 Avg QP:13.83 size:102927
x264 [info]: frame P:30804 Avg QP:15.34 size: 31729
x264 [info]: frame B:103752 Avg QP:17.69 size: 9026
x264 [info]: consecutive B-frames: 3.0% 3.6% 7.8% 22.9% 18.0% 31.2% 5.9% 3.1% 1.8% 1.0% 1.7%
x264 [info]: mb I I16..4: 6.0% 69.6% 24.4%
x264 [info]: mb P I16..4: 0.6% 10.5% 2.0% P16..4: 26.7% 28.8% 16.9% 4.8% 1.1% skip: 8.7%
x264 [info]: mb B I16..4: 0.1% 1.3% 0.2% B16..8: 26.7% 20.6% 5.0% direct: 5.9% skip:40.1% L0:43.8% L1:38.6% BI:17.5%
x264 [info]: 8x8 transform intra:78.5% inter:45.5%
x264 [info]: direct mvs spatial:99.9% temporal:0.1%
x264 [info]: coded y,uvDC,uvAC intra: 92.3% 93.2% 86.5% inter: 20.7% 27.0% 15.4%
x264 [info]: i16 v,h,dc,p: 23% 11% 11% 56%
x264 [info]: i8 v,h,dc,ddl,ddr,vr,hd,vl,hu: 13% 12% 11% 8% 10% 10% 10% 11% 14%
x264 [info]: i4 v,h,dc,ddl,ddr,vr,hd,vl,hu: 14% 9% 7% 8% 14% 13% 12% 10% 12%
x264 [info]: i8c dc,h,v,p: 45% 23% 17% 15%
x264 [info]: Weighted P-Frames: Y:5.1% UV:3.2%
x264 [info]: ref P L0: 50.1% 10.3% 15.7% 6.5% 5.4% 3.6% 3.0% 1.5% 1.4% 1.2% 1.3% 0.1% 0.0%
x264 [info]: ref B L0: 68.4% 12.3% 6.6% 3.7% 3.1% 2.4% 1.6% 1.0% 0.6% 0.3%
x264 [info]: ref B L1: 93.2% 6.8%
x264 [info]: kb/s:2888.97
x264 [total]: encoded 135840 frames, 16.79 fps, 2888.98 kb/s
Format : Matroska
Format version : Version 4
File size : 2.46 GiB
Duration : 1 h 34 min
Overall bit rate : 3 723 kb/s
Movie name : Missing Link (2019)
Encoded date : UTC 2020-02-13 08:54:34
Writing application : mkvmerge v8.2.0 ('World of Adventure') 64bit
Writing library : libebml v1.3.1 + libmatroska v1.4.2
Video
ID : 1
Format : AVC
Format/Info : Advanced Video Codec
Format profile : High@L4.1
Format settings : CABAC / 11 Ref Frames
Format settings, CABAC : Yes
Format settings, Reference frames : 11 frames
Codec ID : V_MPEG4/ISO/AVC
Duration : 1 h 34 min
Bit rate : 2 889 kb/s
Width : 1 104 pixels
Height : 460 pixels
Display aspect ratio : 2.40:1
Frame rate mode : Constant
Frame rate : 23.976 (24000/1001) FPS
Color space : YUV
Chroma subsampling : 4:2:0
Bit depth : 8 bits
Scan type : Progressive
Bits/(Pixel*Frame) : 0.237
Stream size : 1.91 GiB (78%)
Title : Missing Link (2019)
Writing library : x264 core 159 r2991 1771b55
Encoding settings : cabac=1 / ref=11 / deblock=1:-3:-2 / analyse=0x3:0x133 / me=umh / subme=11 / psy=1 / psy_rd=1.00:0.05 / mixed_ref=1 / me_range=48 / chroma_me=1 / trellis=2 / 8x8dct=1 / cqm=0 / deadzone=21,11 / fast_pskip=0 / chroma_qp_offset=-3 / threads=12 / lookahead_threads=3 / sliced_threads=0 / nr=0 / decimate=1 / interlaced=0 / bluray_compat=0 / constrained_intra=0 / bframes=10 / b_pyramid=2 / b_adapt=2 / b_bias=0 / direct=3 / weightb=1 / open_gop=0 / weightp=2 / keyint=250 / keyint_min=23 / scenecut=40 / intra_refresh=0 / rc_lookahead=60 / rc=crf / mbtree=0 / crf=16.1 / qcomp=0.60 / qpmin=0 / qpmax=69 / qpstep=4 / vbv_maxrate=50000 / vbv_bufsize=62500 / crf_max=0.0 / nal_hrd=none / filler=0 / ip_ratio=1.40 / pb_ratio=1.30 / aq=3:0.90
Language : English
Default : Yes
Forced : No
Audio #1
ID : 2
Format : AC-3
Format/Info : Audio Coding 3
Commercial name : Dolby Digital
Codec ID : A_AC3
Duration : 1 h 34 min
Bit rate mode : Constant
Bit rate : 384 kb/s
Channel(s) : 6 channels
Channel layout : L R C LFE Ls Rs
Sampling rate : 48.0 kHz
Frame rate : 31.250 FPS (1536 SPF)
Bit depth : 16 bits
Compression mode : Lossy
Stream size : 259 MiB (10%)
Title : DUB (iTunes)
Language : Russian
Service kind : Complete Main
Default : Yes
Forced : No
Audio #2
ID : 3
Format : AC-3
Format/Info : Audio Coding 3
Commercial name : Dolby Digital
Codec ID : A_AC3
Duration : 1 h 34 min
Bit rate mode : Constant
Bit rate : 448 kb/s
Channel(s) : 6 channels
Channel layout : L R C LFE Ls Rs
Sampling rate : 48.0 kHz
Frame rate : 31.250 FPS (1536 SPF)
Bit depth : 16 bits
Compression mode : Lossy
Stream size : 303 MiB (12%)
Title : Original
Language : English
Service kind : Complete Main
Default : No
Forced : No
Text #1
ID : 4
Format : UTF-8
Codec ID : S_TEXT/UTF8
Codec ID/Info : UTF-8 Plain Text
Duration : 8 s 50 ms
Bit rate : 248 b/s
Count of elements : 5
Stream size : 250 Bytes (0%)
Title : Forced
Language : Russian
Default : Yes
Forced : No
Text #2
ID : 5
Format : UTF-8
Codec ID : S_TEXT/UTF8
Codec ID/Info : UTF-8 Plain Text
Duration : 8 s 49 ms
Bit rate : 140 b/s
Count of elements : 5
Stream size : 141 Bytes (0%)
Title : Forced
Language : English
Default : No
Forced : No
Text #3
ID : 6
Format : UTF-8
Codec ID : S_TEXT/UTF8
Codec ID/Info : UTF-8 Plain Text
Duration : 1 h 34 min
Bit rate : 65 b/s
Count of elements : 1615
Stream size : 45.2 KiB (0%)
Title : SDH
Language : English
Default : No
Forced : No
Menu
00:00:00.000 : en:Chapter 01
00:05:12.520 : en:Chapter 02
00:08:53.616 : en:Chapter 03
00:12:29.206 : en:Chapter 04
00:15:35.851 : en:Chapter 05
00:20:18.550 : en:Chapter 06
00:24:26.840 : en:Chapter 07
00:29:55.126 : en:Chapter 08
00:33:14.659 : en:Chapter 09
00:36:40.948 : en:Chapter 10
00:40:33.389 : en:Chapter 11
00:43:45.164 : en:Chapter 12
00:47:24.299 : en:Chapter 13
00:52:50.876 : en:Chapter 14
00:55:14.477 : en:Chapter 15
00:58:51.903 : en:Chapter 16
00:59:59.721 : en:Chapter 17
01:02:54.729 : en:Chapter 18
01:05:15.494 : en:Chapter 19
01:08:17.176 : en:Chapter 20
01:11:00.339 : en:Chapter 21
01:13:20.437 : en:Chapter 22
01:21:51.197 : en:Chapter 23
01:24:48.625 : en:Chapter 24
01:21:51.197 : en:Chapter 23
01:24:48.625 : en:Chapter 24[/pre]

Скриншоты






Display posts:    

Current time is: 25-Feb 00:47

All times are UTC ± 0


You cannot post new topics in this forum
You cannot reply to topics in this forum
You cannot edit your posts in this forum
You cannot delete your posts in this forum
You cannot vote in polls in this forum
You cannot attach files in this forum
You cannot download files in this forum

!ATTENTION!
The site does not give electronic versions of products, and is engaged only in a collecting and cataloguing of the references sent and published at a forum by our readers. If you are the legal owner of any submitted material and do not wish that the reference to it was in our catalogue, contact us and we shall immediately remove her. Files for an exchange on tracker are given by users of a site, and the administration does not bear the responsibility for their maintenance. The request to not fill in the files protected by copyrights, and also files of the illegal maintenance!