Ивановский Торрент трекер
Яндекс.Погода
 

[Цитировать]
HUNTER

Various Artists - Новогодний Коктейль
Жанр: Pop
Страна-производитель диска: Россия
Год издания: 2009
Издатель (лейбл): CDLand
Номер по каталогу: CDLREC 4562009 CD
Аудиокодек: APE (*.ape)
Тип рипа: image+.cue
Битрейт аудио: lossless
Продолжительность: 00:56:50
Источник (релизер): автор сообщения
Наличие сканов в содержимом раздачи: нет
Треклист:
01. - Дискотека Авария - Новогодняя
02. - Верка Сердючка - Елки
03. - Татьяна Буланова - Под Новый Год
04. - Секрет - Последний Час Декабря
05. - Валентина Толкунова - Кабы Не Было Зимы
06. - Сергей Трофимов - Зима На Пороге
07. - Блестящие - Новогодняя
08. - Ирина Салтыкова - Валенки
09. - Алена Высоцкая - Снегу Рада
10. - Моральный Кодекс - Белое Золото
11. - Арсен Петросов - Кайфуем
12. - Шао-Бао! - Отложим До Весны
13. - Ахра - Помни Обо Мне
14. - Эвелина Бледанс - Хватит!
15. - Юрий Цейтлин - По Любви
16. - Верка Сердючка - Новогодняя

Лог создания рипа

Exact Audio Copy V0.99 prebeta 5 from 4. May 2009
Отчёт EAC об извлечении, выполненном 19. марта 2013, 13:56
Various / Новогодний коктейль
Дисковод: Optiarc DVD RW AD-5260S Adapter: 2 ID: 0
Режим чтения : ДостоверностьИспользование точного потока : ДаОтключение кэша аудио : ДаИспользование указателей C2 : Нет
Коррекция смещения при чтении : 48Способность читать области Lead-in и Lead-out : НетЗаполнение пропущенных сэмплов тишиной : ДаУдаление блоков с тишиной в начале и конце : НетПри вычислениях CRC использовались нулевые сэмплы : ДаИнтерфейс : Встроенный Win32-интерфейс для Win NT/2000
Выходной формат : Внутренние WAV-операцииФормат сэмплов : 44.100 Гц; 16 бит; стерео
TOC извлечённого CD
Трек | Старт | Длительность | Начальный сектор | Конечный сектор --------------------------------------------------------------------- 1 | 0:00.00 | 5:20.27 | 0 | 24026 2 | 5:20.27 | 3:13.08 | 24027 | 38509 3 | 8:33.35 | 3:01.22 | 38510 | 52106 4 | 11:34.57 | 4:02.47 | 52107 | 70303 5 | 15:37.29 | 1:11.19 | 70304 | 75647 6 | 16:48.48 | 4:08.33 | 75648 | 94280 7 | 20:57.06 | 4:08.24 | 94281 | 112904 8 | 25:05.30 | 2:56.72 | 112905 | 126176 9 | 28:02.27 | 3:21.53 | 126177 | 141304 10 | 31:24.05 | 4:01.12 | 141305 | 159391 11 | 35:25.17 | 4:13.18 | 159392 | 178384 12 | 39:38.35 | 3:21.68 | 178385 | 193527 13 | 43:00.28 | 4:10.55 | 193528 | 212332 14 | 47:11.08 | 3:38.50 | 212333 | 228732 15 | 50:49.58 | 3:34.40 | 228733 | 244822 16 | 54:24.23 | 2:26.50 | 244823 | 255822
Характеристики диапазона извлечения и сообщения об ошибках
Выбранный диапазон
Имя файла D:\Temp\Various - Новогодний коктейль.wav
Пиковый уровень 98.8 % Качество диапазона 99.9 % CRC теста F82A7B70 CRC копии F82A7B70 Копирование... OK
Ошибок не произошло
AccurateRip: сводка
Трек 1 нет в базе данныхТрек 2 нет в базе данныхТрек 3 нет в базе данныхТрек 4 нет в базе данныхТрек 5 нет в базе данныхТрек 6 нет в базе данныхТрек 7 нет в базе данныхТрек 8 нет в базе данныхТрек 9 нет в базе данныхТрек 10 нет в базе данныхТрек 11 нет в базе данныхТрек 12 нет в базе данныхТрек 13 нет в базе данныхТрек 14 нет в базе данныхТрек 15 нет в базе данныхТрек 16 нет в базе данных
Ни одного трека нет в базе AccurateRip
Конец отчёта

Скриншоты

Показать сообщения:    

Текущее время: 26-Сен 13:45

Часовой пояс: UTC - 1


Вы не можете начинать темы
Вы не можете отвечать на сообщения
Вы не можете редактировать свои сообщения
Вы не можете удалять свои сообщения
Вы не можете голосовать в опросах
Вы не можете прикреплять файлы к сообщениям
Вы не можете скачивать файлы

!ВНИМАНИЕ!
Сайт не предоставляет электронные версии произведений, а занимается лишь коллекционированием и каталогизацией ссылок, присылаемых и публикуемых на форуме нашими читателями. Если вы являетесь правообладателем какого-либо представленного материала и не желаете, чтобы ссылка на него находилась в нашем каталоге, свяжитесь с нами, и мы незамедлительно удалим ее. Файлы для обмена на трекере предоставлены пользователями сайта, и администрация не несет ответственности за их содержание. Просьба не заливать файлы, защищенные авторскими правами, а также файлы нелегального содержания!