Ивановский Торрент трекер
Яндекс.Погода
 

[Quote]
HUNTER

Mary Gu

Жанр: Pop, Hip-Hop
Носитель + Источник: STREAM
Страна-производитель диска (релиза): РФ
Лета изданий: 2018-2020
Аудиокодек: FLAC
Тип рипа: tracks
Битрейт аудио: lossless
Наличие сканов в содержимом раздачи: нет
Общая продолжительность: 01:09:05Album, EP

2018-09-17 - Грустный мотив - 00:12:00


01. Mary Gu - Грустный мотив
02. Mary Gu - Дикая
03. Mary Gu - Я мелодия
04. Mary Gu - Здравствуй

auCDtect

CUE Corrector v. 8.3.6 / b. 964 (Feb. 13, 2020)
————————————————————————————————————————————————————————————————————————
Mary Gu / Грустный мотив
Folder: 2018-09-17 Грустный мотив
Audio files:
01. Mary Gu - Грустный мотив.flac [02:20.173; FLAC • 912 kbps • 16 bit \ 44100 Hz • stereo; 15,25 MB (15 990 777 B)]
02. Mary Gu - Дикая.flac [03:25.853; FLAC • 798 kbps • 16 bit \ 44100 Hz • stereo; 19,60 MB (20 553 548 B)]
03. Mary Gu - Я мелодия.flac [02:46.653; FLAC • 771 kbps • 16 bit \ 44100 Hz • stereo; 15,33 MB (16 071 625 B)]
04. Mary Gu - Здравствуй.flac [03:27.053; FLAC • 781 kbps • 16 bit \ 44100 Hz • stereo; 19,29 MB (20 222 672 B)]
Accuracy: -m8
File 01. Mary Gu - Грустный мотив - 95% MPEG
File 02. Mary Gu - Дикая - 100% CDDA
File 03. Mary Gu - Я мелодия - 100% CDDA
File 04. Mary Gu - Здравствуй - 95% MPEG
————— Summary: —————
These tracks looks like CDDA with probability 100%.
————————————————————————————————————————————————————————————————————————
ANALYZER:
auCDtect: CD records authenticity detector, version 0.8.2
Copyright (c) 2004 Oleg Berngardt. All rights reserved.
Copyright (c) 2004 Alexander Djourik. All rights reserved.
Time elapsed: 3.618 s
Log created at August 01, 2020 11:55:31
=== 1838878CC01D67FD3F38D4F4BDB1E499C4D8E011C3E9D36A765CC9F2B3E9EB2E ===
-

DRM

foobar2000 1.5.1 / Dynamic Range Meter 1.1.1
log date: 2020-08-01 11:51:25
--------------------------------------------------------------------------------
Analyzed: Mary Gu / Грустный мотив
--------------------------------------------------------------------------------
DR Peak RMS Duration Track
--------------------------------------------------------------------------------
DR6 0.00 dB -6.90 dB 2:20 01-Грустный мотив
DR9 0.00 dB -11.45 dB 3:26 02-Дикая
DR8 0.00 dB -10.41 dB 2:47 03-Я мелодия
DR9 0.00 dB -11.29 dB 3:27 04-Здравствуй
--------------------------------------------------------------------------------
Number of tracks: 4
Official DR value: DR8
Samplerate: 44100 Hz
Channels: 2
Bits per sample: 16
Bitrate: 765 kbps
Codec: FLAC
================================================================================

2020-03-13 - Disney - 00:28:56


01. Mary Gu - Девочка из ниоткуда
02. Mary Gu - Ненавижу города
03. Mary Gu - Disney
04. Mary Gu, Dragni - Не любила
05. Mary Gu - Вино виновато
06. Mary Gu - Обниматься
07. Mary Gu, Loc-Dog - Белая Ворона
08. Mary Gu - Маленький принц
09. Mary Gu - Она весна
10. Mary Gu - Fuck You (Bonus Track)

auCDtect

CUE Corrector v. 8.3.6 / b. 964 (Feb. 13, 2020)
————————————————————————————————————————————————————————————————————————
Mary Gu / Disney
Folder: 2020-03-13 Disney
Audio files:
01. Mary Gu - Девочка из ниоткуда.flac [02:43.667; FLAC • 1018 kbps • 16 bit \ 44100 Hz • stereo; 19,86 MB (20 826 087 B)]
02. Mary Gu - Ненавижу города.flac [02:23.507; FLAC • 962 kbps • 16 bit \ 44100 Hz • stereo; 16,47 MB (17 267 795 B)]
03. Mary Gu - Disney.flac [02:55.920; FLAC • 942 kbps • 16 bit \ 44100 Hz • stereo; 19,76 MB (20 714 619 B)]
04. Mary Gu, Dragni - Не любила.flac [03:29.453; FLAC • 976 kbps • 16 bit \ 44100 Hz • stereo; 24,37 MB (25 553 098 B)]
05. Mary Gu - Вино виновато.flac [02:43.640; FLAC • 923 kbps • 16 bit \ 44100 Hz • stereo; 18,01 MB (18 881 304 B)]
06. Mary Gu - Обниматься.flac [02:42.453; FLAC • 897 kbps • 16 bit \ 44100 Hz • stereo; 17,39 MB (18 229 555 B)]
07. Mary Gu, Loc-Dog - Белая Ворона.flac [03:09.053; FLAC • 888 kbps • 16 bit \ 44100 Hz • stereo; 20,02 MB (20 996 353 B)]
08. Mary Gu - Маленький принц.flac [03:34.693; FLAC • 914 kbps • 16 bit \ 44100 Hz • stereo; 23,40 MB (24 537 641 B)]
09. Mary Gu - Она весна.flac [03:36.800; FLAC • 912 kbps • 16 bit \ 44100 Hz • stereo; 23,59 MB (24 736 260 B)]
10. Mary Gu - Fuck You (Bonus Track).flac [01:36.187; FLAC • 907 kbps • 16 bit \ 44100 Hz • stereo; 10,41 MB (10 915 517 B)]
Accuracy: -m8
File 01. Mary Gu - Девочка из ниоткуда - 99% CDDA
File 02. Mary Gu - Ненавижу города - 100% CDDA
File 03. Mary Gu - Disney - 100% CDDA
File 04. Mary Gu, Dragni - Не любила - 100% CDDA
File 05. Mary Gu - Вино виновато - 100% CDDA
File 06. Mary Gu - Обниматься - 100% CDDA
File 07. Mary Gu, Loc-Dog - Белая Ворона - 100% CDDA
File 08. Mary Gu - Маленький принц - 100% CDDA
File 09. Mary Gu - Она весна - 99% CDDA
File 10. Mary Gu - Fuck You (Bonus Track) - 100% CDDA
————— Summary: —————
These tracks looks like CDDA with probability 100%.
————————————————————————————————————————————————————————————————————————
ANALYZER:
auCDtect: CD records authenticity detector, version 0.8.2
Copyright (c) 2004 Oleg Berngardt. All rights reserved.
Copyright (c) 2004 Alexander Djourik. All rights reserved.
Time elapsed: 16.0 s
Log created at August 01, 2020 11:55:51
=== D1CEB40A9471A7704780B91B5E85D356BB1D025A3186786640F9F31AC0CDBAC1 ===
-

DRM

foobar2000 1.5.1 / Dynamic Range Meter 1.1.1
log date: 2020-08-01 11:51:32
--------------------------------------------------------------------------------
Analyzed: Mary Gu, Dragni / Disney (1)
Mary Gu, Loc-Dog / Disney (2)
Mary Gu / Disney (3-10)
--------------------------------------------------------------------------------
DR Peak RMS Duration Track
--------------------------------------------------------------------------------
DR5 -1.00 dB -8.11 dB 3:29 04-Не любила
DR3 -1.00 dB -6.97 dB 3:09 07-Белая Ворона
DR5 -1.00 dB -8.10 dB 2:44 01-Девочка из ниоткуда
DR4 -1.00 dB -7.50 dB 2:24 02-Ненавижу города
DR5 -1.00 dB -6.92 dB 2:56 03-Disney
DR4 -1.00 dB -6.42 dB 2:44 05-Вино виновато
DR5 -0.50 dB -6.76 dB 2:42 06-Обниматься
DR5 -0.80 dB -7.59 dB 3:35 08-Маленький принц
DR5 -0.50 dB -7.69 dB 3:37 09-Она весна
DR6 -1.00 dB -9.01 dB 1:36 10-Fuck You (Bonus Track)
--------------------------------------------------------------------------------
Number of tracks: 10
Official DR value: DR5
Samplerate: 44100 Hz
Channels: 2
Bits per sample: 16
Bitrate: 871 kbps
Codec: FLAC
================================================================================
Single

2018-09-27 - Ай-Петри - 00:03:24


01. Mary Gu, Драгни - Ай-Петри

auCDtect

CUE Corrector v. 8.3.6 / b. 964 (Feb. 13, 2020)
————————————————————————————————————————————————————————————————————————
Mary Gu / Ай-Петри
Folder: 2018-09-27 Ай-Петри
Audio file: 01. Mary Gu, Драгни - Ай-Петри.flac [03:24.000; FLAC • 841 kbps • 16 bit \ 44100 Hz • stereo; 20,46 MB (21 448 786 B)]
Accuracy: -m8
File 01. Mary Gu, Драгни - Ай-Петри - 99% CDDA
————— Summary: —————
This track looks like CDDA with probability 100%.
————————————————————————————————————————————————————————————————————————
ANALYZER:
auCDtect: CD records authenticity detector, version 0.8.2
Copyright (c) 2004 Oleg Berngardt. All rights reserved.
Copyright (c) 2004 Alexander Djourik. All rights reserved.
Time elapsed: 2.808 s
Log created at August 01, 2020 11:55:28
=== 7E4DD5DF411613B010CA8922A5067A8C029883C537ECFA2D069EBC1734FD228E ===
-

DRM

foobar2000 1.5.1 / Dynamic Range Meter 1.1.1
log date: 2020-08-01 11:51:26
--------------------------------------------------------------------------------
Statistics for: 01-Ай-Петри
Number of samples: 8996400
Duration: 3:24
--------------------------------------------------------------------------------
Left Right
Peak Value: -0.10 dB --- -0.10 dB
Avg RMS: -7.30 dB --- -7.18 dB
DR channel: 5.11 dB --- 5.01 dB
--------------------------------------------------------------------------------
Official DR Value: DR5
Samplerate: 44100 Hz
Channels: 2
Bits per sample: 16
Bitrate: 828 kbps
Codec: FLAC
================================================================================

2018-12-11 - Я не прощаю - 00:03:07


01. Mary Gu - Я не прощаю

auCDtect

CUE Corrector v. 8.3.6 / b. 964 (Feb. 13, 2020)
————————————————————————————————————————————————————————————————————————
Mary Gu / Я не прощаю
Folder: 2018-12-11 Я не прощаю
Audio file: 01. Mary Gu - Я не прощаю.flac [03:06.960; FLAC • 931 kbps • 16 bit \ 44100 Hz • stereo; 20,77 MB (21 775 217 B)]
Accuracy: -m8
File 01. Mary Gu - Я не прощаю - 100% CDDA
————— Summary: —————
This track looks like CDDA with probability 100%.
————————————————————————————————————————————————————————————————————————
ANALYZER:
auCDtect: CD records authenticity detector, version 0.8.2
Copyright (c) 2004 Oleg Berngardt. All rights reserved.
Copyright (c) 2004 Alexander Djourik. All rights reserved.
Time elapsed: 3.101 s
Log created at August 01, 2020 11:55:29
=== 790F35994B329B49140BCEB051A4486DD31CBD8298E89936DE9518FB3F418108 ===
-

DRM

foobar2000 1.5.1 / Dynamic Range Meter 1.1.1
log date: 2020-08-01 11:51:26
--------------------------------------------------------------------------------
Statistics for: 01-Я не прощаю
Number of samples: 8244379
Duration: 3:07
--------------------------------------------------------------------------------
Left Right
Peak Value: -1.28 dB --- -1.28 dB
Avg RMS: -7.97 dB --- -8.03 dB
DR channel: 5.14 dB --- 5.16 dB
--------------------------------------------------------------------------------
Official DR Value: DR5
Samplerate: 44100 Hz
Channels: 2
Bits per sample: 16
Bitrate: 921 kbps
Codec: FLAC
================================================================================

2019-02-19 - Папа - 00:03:21


01. Mary Gu - Папа

auCDtect

CUE Corrector v. 8.3.6 / b. 964 (Feb. 13, 2020)
————————————————————————————————————————————————————————————————————————
Mary Gu / Папа
Folder: 2019-02-19 Папа
Audio file: 01. Mary Gu - Папа.flac [03:20.573; FLAC • 862 kbps • 16 bit \ 44100 Hz • stereo; 20,63 MB (21 628 661 B)]
Accuracy: -m8
File 01. Mary Gu - Папа - 99% CDDA
————— Summary: —————
This track looks like CDDA with probability 100%.
————————————————————————————————————————————————————————————————————————
ANALYZER:
auCDtect: CD records authenticity detector, version 0.8.2
Copyright (c) 2004 Oleg Berngardt. All rights reserved.
Copyright (c) 2004 Alexander Djourik. All rights reserved.
Time elapsed: 2.918 s
Log created at August 01, 2020 11:55:29
=== 107361F6C7FB7E33B1E68CB21D87B536FF9A4E3EAF9157FA07AEACF48E94F9AD ===
-

DRM

foobar2000 1.5.1 / Dynamic Range Meter 1.1.1
log date: 2020-08-01 11:51:26
--------------------------------------------------------------------------------
Statistics for: 01-Папа
Number of samples: 8845200
Duration: 3:21
--------------------------------------------------------------------------------
Left Right
Peak Value: -0.68 dB --- -0.68 dB
Avg RMS: -10.78 dB --- -10.85 dB
DR channel: 7.59 dB --- 7.64 dB
--------------------------------------------------------------------------------
Official DR Value: DR8
Samplerate: 44100 Hz
Channels: 2
Bits per sample: 16
Bitrate: 847 kbps
Codec: FLAC
================================================================================

2019-05-21 - Магнолия - 00:03:08


01. Mary Gu - Магнолия

auCDtect

CUE Corrector v. 8.3.6 / b. 964 (Feb. 13, 2020)
————————————————————————————————————————————————————————————————————————
Mary Gu / Магнолия
Folder: 2019-05-21 Магнолия
Audio file: 01. Mary Gu - Магнолия.flac [03:07.573; FLAC • 852 kbps • 16 bit \ 44100 Hz • stereo; 19,05 MB (19 977 169 B)]
Accuracy: -m8
File 01. Mary Gu - Магнолия - 100% CDDA
————— Summary: —————
This track looks like CDDA with probability 100%.
————————————————————————————————————————————————————————————————————————
ANALYZER:
auCDtect: CD records authenticity detector, version 0.8.2
Copyright (c) 2004 Oleg Berngardt. All rights reserved.
Copyright (c) 2004 Alexander Djourik. All rights reserved.
Time elapsed: 2.933 s
Log created at August 01, 2020 11:55:28
=== 1188EDFC290E87D10C6F706CB1747D4404DF40732FCC6C06BC764DFA6821D06B ===
-

DRM

foobar2000 1.5.1 / Dynamic Range Meter 1.1.1
log date: 2020-08-01 11:51:27
--------------------------------------------------------------------------------
Statistics for: 01-Магнолия
Number of samples: 8271447
Duration: 3:08
--------------------------------------------------------------------------------
Left Right
Peak Value: -0.03 dB --- -0.03 dB
Avg RMS: -10.69 dB --- -10.50 dB
DR channel: 7.90 dB --- 7.70 dB
--------------------------------------------------------------------------------
Official DR Value: DR8
Samplerate: 44100 Hz
Channels: 2
Bits per sample: 16
Bitrate: 819 kbps
Codec: FLAC
================================================================================

2019-06-14 - 17 - 00:02:56


01. Mary Gu - 17

auCDtect

CUE Corrector v. 8.3.6 / b. 964 (Feb. 13, 2020)
————————————————————————————————————————————————————————————————————————
Mary Gu / 17
Folder: 2019-06-14 17
Audio file: 01. Mary Gu - 17.flac [02:55.653; FLAC • 871 kbps • 16 bit \ 44100 Hz • stereo; 18,25 MB (19 138 440 B)]
Accuracy: -m8
File 01. Mary Gu - 17 - 95% MPEG
————— Summary: —————
This track looks like MPEGs with probability 95%.
————————————————————————————————————————————————————————————————————————
ANALYZER:
auCDtect: CD records authenticity detector, version 0.8.2
Copyright (c) 2004 Oleg Berngardt. All rights reserved.
Copyright (c) 2004 Alexander Djourik. All rights reserved.
Time elapsed: 2.351 s
Log created at August 01, 2020 11:55:28
=== FF48350BAB1FD865492EEA90CBD7C77759B3F50AC17271003733785929F07BD0 ===
-

DRM

foobar2000 1.5.1 / Dynamic Range Meter 1.1.1
log date: 2020-08-01 11:51:27
--------------------------------------------------------------------------------
Statistics for: 01-17
Number of samples: 7746048
Duration: 2:56
--------------------------------------------------------------------------------
Left Right
Peak Value: 0.00 dB --- -0.08 dB
Avg RMS: -7.00 dB --- -7.03 dB
DR channel: 4.88 dB --- 4.77 dB
--------------------------------------------------------------------------------
Official DR Value: DR5
Samplerate: 44100 Hz
Channels: 2
Bits per sample: 16
Bitrate: 856 kbps
Codec: FLAC
================================================================================

2019-08-14 - Свежие раны - 00:03:10


01. Mary Gu, Asammuell - Свежие раны

auCDtect

CUE Corrector v. 8.3.6 / b. 964 (Feb. 13, 2020)
————————————————————————————————————————————————————————————————————————
Mary Gu / Свежие раны
Folder: 2019-08-14 Свежие раны
Audio file: 01. Mary Gu, Asammuell - Свежие раны.flac [03:10.373; FLAC • 958 kbps • 16 bit \ 44100 Hz • stereo; 21,75 MB (22 808 337 B)]
Accuracy: -m8
File 01. Mary Gu, Asammuell - Свежие раны - 99% CDDA
————— Summary: —————
This track looks like CDDA with probability 100%.
————————————————————————————————————————————————————————————————————————
ANALYZER:
auCDtect: CD records authenticity detector, version 0.8.2
Copyright (c) 2004 Oleg Berngardt. All rights reserved.
Copyright (c) 2004 Alexander Djourik. All rights reserved.
Time elapsed: 3.072 s
Log created at August 01, 2020 11:55:29
=== 2BE375FB169C2FC09CC1D83338B3B30D6FD89812B8309C74C593D31B0F9788C4 ===
-

DRM

foobar2000 1.5.1 / Dynamic Range Meter 1.1.1
log date: 2020-08-01 11:51:28
--------------------------------------------------------------------------------
Statistics for: 01-Свежие раны
Number of samples: 8395008
Duration: 3:10
--------------------------------------------------------------------------------
Left Right
Peak Value: 0.00 dB --- 0.00 dB
Avg RMS: -6.24 dB --- -6.22 dB
DR channel: 3.69 dB --- 3.68 dB
--------------------------------------------------------------------------------
Official DR Value: DR4
Samplerate: 44100 Hz
Channels: 2
Bits per sample: 16
Bitrate: 943 kbps
Codec: FLAC
================================================================================

2019-09-06 - Ты моя слабость - 00:02:16


01. Mary Gu - Ты моя слабость

auCDtect

CUE Corrector v. 8.3.6 / b. 964 (Feb. 13, 2020)
————————————————————————————————————————————————————————————————————————
Mary Gu / Ты моя слабость
Folder: 2019-09-06 Ты моя слабость
Audio file: 01. Mary Gu - Ты моя слабость.flac [02:16.413; FLAC • 638 kbps • 16 bit \ 44100 Hz • stereo; 10,38 MB (10 879 793 B)]
Accuracy: -m8
File 01. Mary Gu - Ты моя слабость - 95% MPEG
————— Summary: —————
This track looks like MPEGs with probability 95%.
————————————————————————————————————————————————————————————————————————
ANALYZER:
auCDtect: CD records authenticity detector, version 0.8.2
Copyright (c) 2004 Oleg Berngardt. All rights reserved.
Copyright (c) 2004 Alexander Djourik. All rights reserved.
Time elapsed: 2.129 s
Log created at August 01, 2020 11:55:28
=== E3B46AC1798A8CC91F9B26AC86A317DA262FF1392247B60E426495E59CB73732 ===
-

DRM

foobar2000 1.5.1 / Dynamic Range Meter 1.1.1
log date: 2020-08-01 11:51:28
--------------------------------------------------------------------------------
Statistics for: 01-Ты моя слабость
Number of samples: 6015744
Duration: 2:16
--------------------------------------------------------------------------------
Left Right
Peak Value: -1.50 dB --- -1.50 dB
Avg RMS: -15.46 dB --- -15.39 dB
DR channel: 12.73 dB --- 12.69 dB
--------------------------------------------------------------------------------
Official DR Value: DR13
Samplerate: 44100 Hz
Channels: 2
Bits per sample: 16
Bitrate: 613 kbps
Codec: FLAC
================================================================================

2019-12-12 - Грустный Новый год - 00:03:17


01. Mary Gu - Грустный Новый год

auCDtect

CUE Corrector v. 8.3.6 / b. 964 (Feb. 13, 2020)
————————————————————————————————————————————————————————————————————————
Mary Gu / Грустный Новый год
Folder: 2019-12-12 Грустный Новый год
Audio file: 01. Mary Gu - Грустный Новый год.flac [03:17.173; FLAC • 982 kbps • 16 bit \ 44100 Hz • stereo; 23,09 MB (24 211 547 B)]
Accuracy: -m8
File 01. Mary Gu - Грустный Новый год - 100% CDDA
————— Summary: —————
This track looks like CDDA with probability 100%.
————————————————————————————————————————————————————————————————————————
ANALYZER:
auCDtect: CD records authenticity detector, version 0.8.2
Copyright (c) 2004 Oleg Berngardt. All rights reserved.
Copyright (c) 2004 Alexander Djourik. All rights reserved.
Time elapsed: 1.065 s
Log created at August 01, 2020 11:55:31
=== 254451E2400B9B4379519DD01BBAE1AD43743A859D3B230AAE905CE6EDFB628D ===
-

DRM

foobar2000 1.5.1 / Dynamic Range Meter 1.1.1
log date: 2020-08-01 11:51:28
--------------------------------------------------------------------------------
Statistics for: 01-Грустный Новый год
Number of samples: 8695040
Duration: 3:17
--------------------------------------------------------------------------------
Left Right
Peak Value: -1.50 dB --- -1.50 dB
Avg RMS: -5.76 dB --- -5.98 dB
DR channel: 3.65 dB --- 3.84 dB
--------------------------------------------------------------------------------
Official DR Value: DR4
Samplerate: 44100 Hz
Channels: 2
Bits per sample: 16
Bitrate: 960 kbps
Codec: FLAC
================================================================================

2020-06-05 - Пьяный романтик - 00:03:32

[img=right][/img]

01. Mary Gu - Пьяный романтик
02. Mary Gu - Outro (Прощай)

auCDtect

CUE Corrector v. 8.3.6 / b. 964 (Feb. 13, 2020)
————————————————————————————————————————————————————————————————————————
Mary Gu / Пьяный романтик
Folder: 2020-06-05 Пьяный романтик
Audio files:
01. Mary Gu - Пьяный романтик.flac [02:46.867; FLAC • 867 kbps • 16 bit \ 44100 Hz • stereo; 17,25 MB (18 092 144 B)]
02. Mary Gu - Outro (Прощай).flac [00:44.507; FLAC • 882 kbps • 16 bit \ 44100 Hz • stereo; 4,68 MB (4 911 969 B)]
Accuracy: -m8
File 01. Mary Gu - Пьяный романтик - 100% CDDA
File 02. Mary Gu - Outro (Прощай) - 100% CDDA
————— Summary: —————
These tracks looks like CDDA with probability 100%.
————————————————————————————————————————————————————————————————————————
ANALYZER:
auCDtect: CD records authenticity detector, version 0.8.2
Copyright (c) 2004 Oleg Berngardt. All rights reserved.
Copyright (c) 2004 Alexander Djourik. All rights reserved.
Time elapsed: 1.347 s
Log created at August 01, 2020 11:55:31
=== A9E1E035585D366091F7DCD8D13B63D6A7614FF18FA9EE8E3CBE7B68F98054D2 ===
-

DRM

foobar2000 1.5.1 / Dynamic Range Meter 1.1.1
log date: 2020-08-01 11:51:32
--------------------------------------------------------------------------------
Analyzed: Mary Gu / Пьяный романтик
--------------------------------------------------------------------------------
DR Peak RMS Duration Track
--------------------------------------------------------------------------------
DR4 -0.32 dB -6.65 dB 2:47 01-Пьяный романтик
DR5 -0.32 dB -8.85 dB 0:45 02-Outro (Прощай)
--------------------------------------------------------------------------------
Number of tracks: 2
Official DR value: DR5
Samplerate: 44100 Hz
Channels: 2
Bits per sample: 16
Bitrate: 812 kbps
Codec: FLAC
================================================================================


Display posts:    

Current time is: 05-Aug 17:09

All times are UTC ± 0


You cannot post new topics in this forum
You cannot reply to topics in this forum
You cannot edit your posts in this forum
You cannot delete your posts in this forum
You cannot vote in polls in this forum
You cannot attach files in this forum
You cannot download files in this forum

!ATTENTION!
The site does not give electronic versions of products, and is engaged only in a collecting and cataloguing of the references sent and published at a forum by our readers. If you are the legal owner of any submitted material and do not wish that the reference to it was in our catalogue, contact us and we shall immediately remove her. Files for an exchange on tracker are given by users of a site, and the administration does not bear the responsibility for their maintenance. The request to not fill in the files protected by copyrights, and also files of the illegal maintenance!