Ивановский Торрент трекер
Яндекс.Погода
DL-List and Torrent activity
None
 
     
 
 

[Quote]
HUNTER

Подглядывающий на кухне / Kick the Cock-Год выпуска: 2008
Страна: Италия
Жанр: комедия, эротика
Продолжительность: 00:16:04
Перевод: Отсутствует
Субтитры: нет-В ролях: Тинто Брасс, Анджелита Франко
Режиссёр: Тинто Брасс / Tinto Brass-Описание: Действие данной эротической короткометражки происходят на кухне. Тинто Брасс, в роли самого себя, подглядывает за своей сексуальной кухаркой.
* Для поклонников Тинто Брасса. На текущий момент это последняя из вышедших работ маэстро.
-Качество: BDRip-AVC (источник двухдисковый Blu-ray Monamour)
Формат: MKV
Видео кодек: AVC
Аудио кодек: AC3
Видео: MPEG4 AVC, 1280x720, 5046 Кбит/сек, 23.98fps
Аудио: Dolby AC3, 192 кб/с, 2ch, 48Hz-

MediaInfo

Общее
Уникальный идентификатор : 242414901327416608224990955925490347489 (0xB65F696800DA3B4A8474E8FE626BADE1)
Полное имя : Kick The Cock BDRip x264.mkv
Формат : Matroska
Версия формата : Version 1
Размер файла : 615 Мбайт
Продолжительность : 16 м.
Общий поток : 5344 Кбит/сек
Дата кодирования : UTC 2011-07-29 05:32:37
Программа кодирования : mkvmerge v2.2.0 ('Turn It On Again') built on Mar 4 2008 13:20:25
Библиотека кодирования : libebml v0.7.7 + libmatroska v0.8.1
Видео
Идентификатор : 1
Формат : AVC
Формат/Информация : Advanced Video Codec
Профиль формата : High@L4.1
Параметр CABAC формата : Да
Параметр ReFrames формата : 8 кадров
Идентификатор кодека : V_MPEG4/ISO/AVC
Продолжительность : 16 м.
Битрейт : 5156 Кбит/сек
Ширина : 1280 пикселей
Высота : 720 пикселей
Соотношение сторон : 16:9
Режим частоты кадров : Постоянный
Частота кадров : 23,976 кадра/сек
Цветовое пространство : YUV
Субдискретизация насыщенности : 4:2:0
Битовая глубина : 8 бит
Тип развёртки : Прогрессивная
Бит/(Пиксели*Кадры) : 0.233
Размер потока : 580 Мбайт (94%)
Библиотека кодирования : x264 core 68 r1183M f21daff
Настройки программы : cabac=1 / ref=8 / deblock=1:-3:-3 / analyse=0x3:0x133 / me=umh / subme=9 / psy_rd=1.1:0.0 / mixed_ref=1 / me_range=32 / chroma_me=1 / trellis=2 / 8x8dct=1 / cqm=0 / deadzone=21,11 / chroma_qp_offset=-2 / threads=6 / nr=0 / decimate=1 / mbaff=0 / bframes=6 / b_pyramid=1 / b_adapt=2 / b_bias=0 / direct=3 / wpredb=1 / keyint=250 / keyint_min=25 / scenecut=40 / rc=2pass / bitrate=5156 / ratetol=1.0 / qcomp=0.60 / qpmin=10 / qpmax=51 / qpstep=4 / cplxblur=20.0 / qblur=0.5 / vbv_maxrate=50000 / vbv_bufsize=50000 / ip_ratio=1.40 / pb_ratio=1.30 / aq=1:0.80
Язык : English
Default : Да
Forced : Нет
Аудио
Идентификатор : 2
Формат : AC-3
Формат/Информация : Audio Coding 3
Расширение режима : CM (complete main)
Параметр Endianness формата : Big
Идентификатор кодека : A_AC3
Продолжительность : 16 м.
Вид битрейта : Постоянный
Битрейт : 192 Кбит/сек
Каналы : 2 канала
Расположение каналов : Front: L R
Частота : 48,0 КГц
Битовая глубина : 16 бит
Метод сжатия : С потерями
Размер потока : 22,1 Мбайт (4%)
Заголовок : 意大利语
Язык : Italian
Default : Да
Forced : Нет

Скринлист

Скриншоты



Display posts:    

Current time is: 27-Jan 03:55

All times are UTC ± 0


You cannot post new topics in this forum
You cannot reply to topics in this forum
You cannot edit your posts in this forum
You cannot delete your posts in this forum
You cannot vote in polls in this forum
You cannot attach files in this forum
You cannot download files in this forum

!ATTENTION!
The site does not give electronic versions of products, and is engaged only in a collecting and cataloguing of the references sent and published at a forum by our readers. If you are the legal owner of any submitted material and do not wish that the reference to it was in our catalogue, contact us and we shall immediately remove her. Files for an exchange on tracker are given by users of a site, and the administration does not bear the responsibility for their maintenance. The request to not fill in the files protected by copyrights, and also files of the illegal maintenance!