Важное объявление!
У Нас Все раздачи мультитрекерные, при нуле пиров в релизах, можете смело вставать на закачку!
 
Автор Сообщение

HUNTER

Стаж:
4 года 8 месяцев
Сообщений:
61985

Репутация: 101

[+] [-]
Вне форума [Профиль] [ЛС]

Xamarin.Forms and Data
Год выпуска: 2015
Производитель: Pluralsight
Сайт производителя: http://www.pluralsight.com/
Автор: Jesse Liberty
Продолжительность: 1h 25m
Тип раздаваемого материала: Видеоклипы
Язык: Английский
Описание: Every meaningful application works with data. In this course, you will learn both introductory and advanced techniques for managing data in Xamarin.Forms including data binding, collection presentation, persistence, and custom rendering.
Почти каждому приложению приходится работать с некоторыми данными. В этом курсе вы узнаете как базовые, так и продвинутые методы по работе с данными в Xamarin.Forms, такие как data binding, collection presentation, persistence и custom rendering.

Содержание

├───01 Introduction
│ 01 01 Introduction.mp4

├───02 Understanding Data Binding
│ 02 01 Introduction to the Module.mp4
│ 02 02 Simple Data Binding.mp4
│ 02 03 Data Binding to a List.mp4
│ 02 04 Introduction to Grouping.mp4
│ 02 05 Grouping Code Behind.mp4
│ 02 06 Grouping XAML.mp4

├───03 Separating Data and Presentation with MVVM
│ 03 01 Introduction.mp4
│ 03 02 MVVM.mp4
│ 03 03 Triggers.mp4
│ 03 04 Summary.mp4

├───04 Consuming Rest Services
│ 04 01 Introduction.mp4
│ 04 02 Starting the Demo.mp4
│ 04 03 Creating the MVVM Structure and the Model.mp4
│ 04 04 Creating the User Interface.mp4
│ 04 05 Creating the ViewModel.mp4
│ 04 06 Get Weather Async.mp4
│ 04 07 Running the Program.mp4
│ 04 08 Quick Review.mp4

├───05 Offician Persisting Data with SQLite
│ 05 01 Introduction.mp4.mp4
│ 05 02 Adding SQLite Package.mp4
│ 05 03 Adding the SQLite Interface.mp4
│ 05 04 Adding Contact Database.mp4
│ 05 05 Adding the SAVE operations.mp4
│ 05 06 Adding the Reaming CRUD Operations.mp4
│ 05 07 iOS Specific Code.mp4
│ 05 08 Creating an Entry Page.mp4
│ 05 09 Retrieving Data.mp4
│ 05 10 Button Event Handlers.mp4
│ 05 11 Completing the Project.mp4
│ 05 12 Summary.mp4

├───06 Extending Xamarin.Forms with Custom Renderers
│ 06 01 Introduction.mp4.mp4
│ 06 02 The PCL Code.mp4
│ 06 03 Custom Rendering.mp4
│ 06 04 Adding Contact Database.mp4

├───07 Resources and Next Steps
│ 07 01 Resources and Next Steps.mp4

└───Exercise files
xamarinformsanddata.zip
Файлы примеров: присутствуют
Формат видео: MP4

отчетMediaInfo

General
Complete name : 01. Introduction\01_01-Introduction.mp4
Format : MPEG-4
Format profile : Base Media / Version 2
Codec ID : mp42
File size : 2.27 MiB
Duration : 50s 341ms
Overall bit rate mode : Variable
Overall bit rate : 378 Kbps
Writing application : Lavf54.29.104
Video
ID : 1
Format : AVC
Format/Info : Advanced Video Codec
Format profile : Baseline@L3.1
Format settings, CABAC : No
Format settings, ReFrames : 2 frames
Codec ID : avc1
Codec ID/Info : Advanced Video Coding
Duration : 50s 334ms
Bit rate : 278 Kbps
Width : 1 024 pixels
Height : 768 pixels
Display aspect ratio : 4:3
Frame rate mode : Constant
Frame rate : 15.000 fps
Color space : YUV
Chroma subsampling : 4:2:0
Bit depth : 8 bits
Scan type : Progressive
Bits/(Pixel*Frame) : 0.024
Stream size : 1.67 MiB (74%)
Writing library : x264 core 136
Encoding settings : cabac=0 / ref=2 / deblock=1:0:0 / analyse=0x1:0x111 / me=umh / subme=6 / psy=1 / psy_rd=1.00:0.00 / mixed_ref=1 / me_range=16 / chroma_me=1 / trellis=0 / 8x8dct=0 / cqm=0 / deadzone=21,11 / fast_pskip=1 / chroma_qp_offset=-2 / threads=48 / lookahead_threads=6 / sliced_threads=0 / nr=0 / decimate=1 / interlaced=0 / bluray_compat=0 / constrained_intra=0 / bframes=0 / weightp=0 / keyint=50 / keyint_min=15 / scenecut=40 / intra_refresh=0 / rc_lookahead=40 / rc=crf / mbtree=1 / crf=20.0 / qcomp=0.60 / qpmin=10 / qpmax=51 / qpstep=4 / ip_ratio=1.41 / aq=1:1.00
Language : English
Tagged date : UTC 2015-08-11 14:00:01
Audio
ID : 2
Format : AAC
Format/Info : Advanced Audio Codec
Format profile : LC
Codec ID : 40
Duration : 50s 341ms
Bit rate mode : Variable
Bit rate : 96.0 Kbps
Maximum bit rate : 128 Kbps
Channel(s) : 2 channels
Channel positions : Front: L R
Sampling rate : 44.1 KHz
Compression mode : Lossy
Stream size : 596 KiB (26%)
Language : English
Tagged date : UTC 2015-08-11 14:00:01

Скриншоты


_________________
Показать сообщения:    

Текущее время: Сегодня 00:13

Часовой пояс: GMT



Вы не можете начинать темы
Вы не можете отвечать на сообщения
Вы не можете редактировать свои сообщения
Вы не можете удалять свои сообщения
Вы не можете голосовать в опросах
Вы не можете прикреплять файлы к сообщениям
Вы не можете скачивать файлы
Наши партнеры: интернет магазин Ивановского трикотажа textilla.ru