Ивановский Торрент трекер
Яндекс.Погода
 

[Цитировать]
HUNTER

Integrating Linux in a Windows Enterprise Environment
Год выпуска: 2014
Производитель: Pluralsight
Сайт производителя: http://pluralsight.com/
Автор: Chris Brown
Продолжительность: 4h 17m
Тип раздаваемого материала: Видеоурок
Язык: Английский
Описание: This course shows you how to use Samba and other interoperability tools to integrate Linux systems into an existing Windows-based network.
Этот курс покажет вам, как используя Samba интегрировать Linux системы в существующую сеть на базе Windows.

Содержание

├───01. Introduction - 9:13
│01. Introduction - 9:13

├───02. Getting Started With Samba - 29:17
│01. Samba in a Windows Network - 10:48
│02. Installing Samba - 3:17
│03. Creating and Viewing a File Share - 10:39
│04. The Samba Web <a href="http://cityadspix.com/tsclick-GCQRILZK-SLZKVXTQ?&sa=6&sa1=&sa2=&sa3=&sa4=&bt=20&pt=9&lt=2&tl=1&im=MTc1NS0wLTE0MTU1MjQ2NjUtMTM3NzY2NTM%3D&kw=Administration" target="_blank" alt="mba.ru" title="mba.ru" style="">Administration</a> Tool - 4:31

├───03. File Sharing in Depth - 42:46
│01. The Stand-Alone Server Role - 9:30
│02. Controlling Access to Shares - 3:16
│03. Exporting Home Directories - 1:59
│04. Configuring Samba Logging - 7:30
│05. Linux as the Client - 13:01
│06. Printing - 7:27

├───04. Linux as a Domain Member - 41:06
│01. Lesson Introduction - 1:12
│02. Core Technologies: NSS, PAM, Kerberos, winbind - 12:19
│03. Joining the Domain - 11:21
│04. Winbind and PAM - 7:50
│05. Storing Linux Account Info in Active Directory - 7:15
│06. Lesson Summary - 1:08

├───05. Samba as an Active Directory Domain Controller - 41:06
│01. Introducing Samba 4 and Active Directory - 6:35
│02. Installing Ubuntu - 7:20
│03. Building Samba 4 From Source - 8:28
│04. Provisioning a Domain - 5:58
│05. Verifying Operation - 4:14
│06. Joining and Administering the Domain - 8:30

├───06. Remote Access Tools - 54:24
│01. The Secure Shell - 8:40
│02. Secure Shell in Action - 5:52
│03. The cygwin Toolset - 11:01
│04. Secure Shell User Authentication - 7:04
│05. Running X Windows Applications Remotely - 10:25
│06. Desktop Sharing With VNC - 7:38
│07. Other Graphical Remote Access Tools - 3:41

├───07. Interoperability Tools - 40:06
│01. Barriers to Linux Adoption - 3:04
│02. Software as a Service - 6:20
│03. Open Source Equivalents - 5:48
│04. Running Windows Apps on Linux Using Wine - 11:14
│05. Virtualization - 5:38
│06. Virtualization in Action - 7:06
│07. Summary - 0:54
Файлы примеров: присутствуют
Формат видео: MP4

аудио/видео

General
Complete name: C:\02-Samba in a Windows Network.mp4
Format: MPEG-4
Format profile: Base Media / Version 2
Codec ID: mp42
File size: 24.3 MiB
Duration: 10mn 48s
Overall bit rate mode: Variable
Overall bit rate: 314 Kbps
Encoded date : UTC 2014-10-21 16:28:40
Video
ID: 1
Format: AVC
Format/Info: Advanced Video Codec
Format profile: Baseline@L3.1
Format settings, CABAC: No
Format settings, ReFrames: 2 frames
Format settings, GOP: M=1, N=50
Codec ID: avc1
Codec ID/Info: Advanced Video Coding
Duration: 10mn 48s
Duration_FirstFrame: 67ms
Bit rate: 208 Kbps
Width: 1 024 pixels
Height: 768 pixels
Display aspect ratio: 4:3
Frame rate mode: Constant
Frame rate: 15.000 fps
Color space: YUV
Chroma subsampling: 4:2:0
Bit depth: 8 bits
Scan type: Progressive
Bits/(Pixel*Frame): 0.018
Stream size: 16.0 MiB (66%)
Writing library: x264 core 120
Audio
ID: 2
Format: AAC
Format/Info: Advanced Audio Codec
Format profile: LC
Codec ID: 40
Duration: 10mn 48s
Bit rate mode: Variable
Bit rate: 104 Kbps
Maximum bit rate: 130 Kbps
Channel count: 2 channels
Channel positions: Front: L R
Sampling rate: 44.1 KHz
Compression mode: Lossy
Stream size: 8.06 MiB (33%)
Language: English

Скриншоты

Показать сообщения:    

Текущее время: 21-Сен 21:59

Часовой пояс: UTC - 1


Вы не можете начинать темы
Вы не можете отвечать на сообщения
Вы не можете редактировать свои сообщения
Вы не можете удалять свои сообщения
Вы не можете голосовать в опросах
Вы не можете прикреплять файлы к сообщениям
Вы не можете скачивать файлы

!ВНИМАНИЕ!
Сайт не предоставляет электронные версии произведений, а занимается лишь коллекционированием и каталогизацией ссылок, присылаемых и публикуемых на форуме нашими читателями. Если вы являетесь правообладателем какого-либо представленного материала и не желаете, чтобы ссылка на него находилась в нашем каталоге, свяжитесь с нами, и мы незамедлительно удалим ее. Файлы для обмена на трекере предоставлены пользователями сайта, и администрация не несет ответственности за их содержание. Просьба не заливать файлы, защищенные авторскими правами, а также файлы нелегального содержания!