Ивановский Торрент трекер
Яндекс.Погода
 

[Quote]
HUNTER

Планета сокровищ / Treasure Planet- Страна: США
Жанр: приключения, семейный, анимация
Продолжительность: 01:25:51
Год выпуска: 2002
Перевод: Профессиональный (дублированный)-Режиссёр: Рон Клементс, Джон Маскер
Роли озвучивали: Брайан Мюррей, Джозеф Гордон-Левитт, Эмма Томпсон-Описание: Джим Хокинс теперь в поисках не острова, а целой планеты сокровищ! Теперь он бороздит не океан, а космос.
15-летний мальчишка попадает на корабль с пиратами-киборгами и отправляется в захватывающее путешествие. Там он знакомится с корабельным коком, киборгом по имени Джон Сильвер. На плече у Сильвера сидит не привычный попугай, а создание по имени Морф, которое постоянно меняет свою форму. Под чутким руководством кока Джим становится умелым «космоплавателем» и не раз спасает космический галеон от самых серьезных опасностей: черных дыр, взрывов сверхновых и космических штормов.
Но самое тяжелое испытание поджидает юного Джима впереди — предательство близкого друга, который вместе с командой матросов пытается обманом захватить все сокровища и скрыться…-Доп. информация: Представленная запись является уникальной, так как название мультфильма и вступительные титры написаны на русском языке.-Качество: DVB
Формат: MPEG-TS
Видео: MPEG, 720x576 (4:3), 25.000 fps, ~2 293 Kbps
Аудио: MPEG Audio, 48000 Hz, stereo, 192 kbps
Субтитры: отсутствуют-

Отличия русификации СТС от русификации канала Дисней


Подробные технические данные

GeneralID : 1 (0x1)Complete name : I:\Планета сокровищ (Русификация Дисней, 2015).tsFormat : MPEG-TSFile size : 1.43 GiBDuration : 1h 25mnOverall bit rate : 2 389 Kbps
VideoID : 328 (0x148)Menu ID : 1 (0x1)Format : MPEG VideoFormat version : Version 2Format profile : [email protected] settings, BVOP : YesFormat settings, Matrix : DefaultFormat settings, GOP : M=1, N=38Codec ID : 2Duration : 1h 25mnBit rate mode : VariableBit rate : 2 077 KbpsNominal bit rate : 15.0 MbpsWidth : 720 pixelsHeight : 576 pixelsDisplay aspect ratio : 4:3Frame rate : 25.000 fpsStandard : PALColor space : YUVChroma subsampling : 4:2:0Bit depth : 8 bitsScan type : InterlacedScan order : Top Field FirstCompression mode : LossyBits/(Pixel*Frame) : 0.200Stream size : 1.25 GiB (87%)
AudioID : 408 (0x198)Menu ID : 1 (0x1)Format : MPEG AudioFormat version : Version 1Format profile : Layer 2Codec ID : 3Duration : 1h 25mnBit rate mode : ConstantBit rate : 192 KbpsChannel(s) : 2 channelsSampling rate : 48.0 KHzCompression mode : LossyVideo delay : 24msStream size : 118 MiB (8%)Language : Russian

Скриншоты

Релиз:


Display posts:    

Current time is: 01-Jun 02:58

All times are UTC ± 0


You cannot post new topics in this forum
You cannot reply to topics in this forum
You cannot edit your posts in this forum
You cannot delete your posts in this forum
You cannot vote in polls in this forum
You cannot attach files in this forum
You cannot download files in this forum

!ATTENTION!
The site does not give electronic versions of products, and is engaged only in a collecting and cataloguing of the references sent and published at a forum by our readers. If you are the legal owner of any submitted material and do not wish that the reference to it was in our catalogue, contact us and we shall immediately remove her. Files for an exchange on tracker are given by users of a site, and the administration does not bear the responsibility for their maintenance. The request to not fill in the files protected by copyrights, and also files of the illegal maintenance!