Ивановский Торрент трекер
Яндекс.Погода
DL-List and Torrent activity
Size:  11.91 GB   |    Registered:  1 year 5 months   |    Completed:  2 times
DL-List: None

Seeder not seen: 1 year 5 months

 
     
 
 
 

[Quote]
HUNTER

Пища для души / Soul Food
Страна: США
Жанр: драма, комедия
Год выпуска: 1997
Продолжительность: 01:54:57
Перевод: Профессиональный (двухголосый закадровый) Лазер Видео
Субтитры: английские
Оригинальная аудиодорожка: английский
Режиссер: Джордж Тиллман мл. / George Tillman Jr.
В ролях: Ванесса Уильямс, Вивика А. Фокс, Ниа Лонг, Майкл Бич, Мекхай Файфер, Брэндон Хэммонд, Джеффри Д. Сэмс, Джина Равера, Ирма П. Холл, Карл Райт...
Описание: Хорошо ли это — большая семья? С одной стороны, образованные и одаренные герои с непростыми характерами, с другой — интриги, порождаемые внезапно возникшим наследством, личные проблемы, несовместимость характеров и проблемы с законом приводят к раздорам в большой семье. Как часто бывает, проблемы возникают после смерти родителей.
Мама Джо, умирая, завещала внуку Ахмаду восстановить семейные узы, объединявшие семью более 40 лет, но ослабевшие в последнее время. Преодолевая проблемы взрослых и непонимание со стороны родственников, ему удается объединить семью и воскресить старинные семейные традиции.
Доп. информация: Оцифровка перевода Лазер Видео - Fikaloid. Синхронизация звука - Dreven.
Сэмпл: http://sendfile.su/1393415
Тип релиза: WEB-DL 1080p
Контейнер: MKV
Видео: 1920x1080 (16:9), 23.976 fps, AVC, ~13.7 Mbps, 0.275 bits/pixel
Аудио 1: Russian, 48.0 KHz, AC3, 2 ch, 224 Kbps - Лазер Видео
Аудио 2: English, 48.0 KHz, AC3+, 6 ch, 640 Kbps

MediaInfo

General
Unique ID : 249126357781428800861219672661917507812 (0xBB6BFDC1D26B021467B017F127C920E4)
Complete name : C:\Soul Food. WEB-DL 1080p.mkv
Format : Matroska
Format version : Version 4 / Version 2
File size : 11.9 GiB
Duration : 1 h 54 min
Overall bit rate mode : Variable
Overall bit rate : 14.8 Mb/s
Encoded date : UTC 2018-01-22 19:46:05
Writing application : mkvmerge v19.0.0 ('Brave Captain') 64-bit
Writing library : libebml v1.3.5 + libmatroska v1.4.8
Video
ID : 1
Format : AVC
Format/Info : Advanced Video Codec
Format profile : High@L4
Format settings : CABAC / 4 Ref Frames
Format settings, CABAC : Yes
Format settings, ReFrames : 4 frames
Codec ID : V_MPEG4/ISO/AVC
Duration : 1 h 54 min
Bit rate mode : Variable
Bit rate : 14.0 Mb/s
Maximum bit rate : 15.0 Mb/s
Width : 1 920 pixels
Height : 1 080 pixels
Display aspect ratio : 16:9
Frame rate mode : Constant
Frame rate : 23.976 (24000/1001) FPS
Color space : YUV
Chroma subsampling : 4:2:0
Bit depth : 8 bits
Scan type : Progressive
Bits/(Pixel*Frame) : 0.281
Stream size : 11.2 GiB (94%)
Language : English
Default : Yes
Forced : No
Color range : Limited
Color primaries : BT.709
Transfer characteristics : BT.709
Matrix coefficients : BT.709
Audio #1
ID : 2
Format : AC-3
Format/Info : Audio Coding 3
Codec ID : A_AC3
Duration : 1 h 54 min
Bit rate mode : Constant
Bit rate : 224 kb/s
Channel(s) : 2 channels
Channel positions : Front: L R
Sampling rate : 48.0 kHz
Frame rate : 31.250 FPS (1536 SPF)
Bit depth : 16 bits
Compression mode : Lossy
Stream size : 184 MiB (2%)
Title : Лазер Видео
Language : Russian
Service kind : Complete Main
Default : Yes
Forced : No
Audio #2
ID : 3
Format : E-AC-3
Format/Info : Enhanced Audio Coding 3
Codec ID : A_EAC3
Duration : 1 h 54 min
Bit rate mode : Constant
Bit rate : 640 kb/s
Channel(s) : 6 channels
Channel positions : Front: L C R, Side: L R, LFE
Sampling rate : 48.0 kHz
Frame rate : 187.500 FPS (256 SPF)
Compression mode : Lossy
Stream size : 526 MiB (4%)
Language : English
Service kind : Complete Main
Default : No
Forced : No
Text
ID : 4
Format : UTF-8
Codec ID : S_TEXT/UTF8
Codec ID/Info : UTF-8 Plain Text
Duration : 1 h 53 min
Bit rate : 70 b/s
Count of elements : 2006
Stream size : 58.6 KiB (0%)
Language : English
Default : No
Forced : No

Скриншоты

[iv-torrents.ru].t83460.torrent
Torrent: Registered [ 2018-08-09 15:29 ] · 8F525A109EF8E6CEE3B0384CB0EC499B93007E21

Download .torrent

Download

30 KB

Status: checked
Completed: 2 times
Size: 11.91 GB
terms.php
Похожие темы


Display posts:    

Current time is: 22-Jan 03:09

All times are UTC ± 0


You cannot post new topics in this forum
You cannot reply to topics in this forum
You cannot edit your posts in this forum
You cannot delete your posts in this forum
You cannot vote in polls in this forum
You cannot attach files in this forum
You can download files in this forum

!ATTENTION!
The site does not give electronic versions of products, and is engaged only in a collecting and cataloguing of the references sent and published at a forum by our readers. If you are the legal owner of any submitted material and do not wish that the reference to it was in our catalogue, contact us and we shall immediately remove her. Files for an exchange on tracker are given by users of a site, and the administration does not bear the responsibility for their maintenance. The request to not fill in the files protected by copyrights, and also files of the illegal maintenance!