Ивановский Торрент трекер
Яндекс.Погода
 

[Quote]
HUNTER

Пират со странностями / Pirat mit Hindernissen Страна: ГДР
Студия: (DEFA, Deutscher Fernsehfunk (DFF), Fernsehen der DDR)
Жанр: семейный
Год выпуска: 1975
Продолжительность: 01:11:13
Перевод: Авторский (одноголосый закадровый) (Юрий Муравский)
Субтитры: нет
Оригинальная аудиодорожка: немецкий
Режиссер: Вольфганг Хюбнер / Wolfgang Hubner
В ролях: Детлеф Бирштедт / Detlef Bierstedt, Фред Дельмаре / Fred Delmare, Петер Доммиш / Peter Dommisch, Эрика Дункельман / Erika Dunkelmann, Ursula Genhorn, Frank Griebel, Michael Jeske, Вальтрауд Крамм / Waltraud Kramm, Агнес Краус / Agnes Kraus, Герберт Кёфер / Herbert Köfer
Описание: История 13-летнего сына рыбака, отношения которого с учителями и одноклассниками часто носят напряжённый характер. Но мальчик начинает себя проявлять. Он выдерживает сложные испытания, и в нём постепенно развивается чувство коллективизма.
Доп. информация:Сведение звука и сборка DVD - АртвидеоРелиз:

Меню: есть
Тип релиза: DVD5 (Custom)
Контейнер: DVD-Video
Видео: PAL 4:3 (720x576) VBR
Аудио: AC3, 2/0 (L,R) ch, 192 kbps, Delay 0 mSec
Аудио 2: AC3, 2/0 (L,R) ch, 192 kbps, Delay 0 mSec

DVDInfo

Title: Pirat mit Hindernissen (1975)
Size: 3.59 Gb ( 3 766 268,00 KBytes ) - DVD-5
Enabled regions: 1, 2, 3, 4, 5, 6
VTS_01 :
Play Length: 01:11:13+{01:11:13}
Video: PAL 4:3 (720x576) VBR
Audio:
Not specified, AC3, 2/0 (L,R) ch, 192 kbps, Delay 0 mSec
Not specified, AC3, 2/0 (L,R) ch, 192 kbps, Delay 0 mSec
VTS_02 :
Play Length: 00:01:32+{00:01:32}
Video: PAL 4:3 (720x576) VBR
Audio:
Not specified, AC3, 2/0 (L,R) ch, 192 kbps, Delay 0 mSec
VTS_03 :
Play Length: 00:01:52+{00:01:52}
Video: PAL 4:3 (720x576) VBR
Audio:
Not specified, AC3, 2/0 (L,R) ch, 192 kbps, Delay 0 mSec
VTS_04 :
Play Length: 00:01:30+{00:01:30}
Video: PAL 4:3 (720x576) VBR
Audio:
Not specified, AC3, 2/0 (L,R) ch, 192 kbps, Delay 0 mSec
VTS_05 :
Play Length: 00:01:53+{00:01:53}
Video: PAL 4:3 (720x576) VBR
Audio:
Not specified, AC3, 2/0 (L,R) ch, 192 kbps, Delay 0 mSec
VTS_06 :
Play Length: 00:00:32+{00:00:32}
Video: PAL 4:3 (720x576) VBR

Скриншоты меню

ОБЛОЖКИ DVD

MediaIFO

Общее
Полное имя : I:\ПЕРЕВЕДЕННЫЕ ФИЛЬМЫ НА DVD\Пират со странностями Pirat mit Hindernissen (1975) ГДР DVD - 5\Pirat mit Hindernissen (1975)\VIDEO_TS\VTS_03_1.VOB
Формат : MPEG-PS
Размер файла : 70,6 Мбайт
Продолжительность : 1 м. 52 с.
Режим общего битрейта : Переменный
Общий поток : 5283 Кбит/сек
Видео
Идентификатор : 224 (0xE0)
Формат : MPEG Video
Версия формата : Version 2
Профиль формата : [email protected]
Параметр BVOP формата : Да
Параметр матрицы формата : Выборочная
Параметр GOP формата : M=3, N=12
Продолжительность : 1 м. 52 с.
Вид битрейта : Переменный
Битрейт : 4986 Кбит/сек
Максимальный битрейт : 8000 Кбит/сек
Ширина : 720 пикселей
Высота : 576 пикселей
Соотношение сторон : 4:3
Частота кадров : 25,000 кадров/сек
Стандарт вещания : PAL
Цветовое пространство : YUV
Субдискретизация насыщенности : 4:2:0
Битовая глубина : 8 бит
Тип развёртки : Прогрессивная
Метод сжатия : С потерями
Бит/(Пиксели*Кадры) : 0.481
Временной код первого кадра : 01:00:00:00
Оригинал временного кода : Group of pictures header
GOP, открыто/закрыто : Закрыто
Размер потока : 66,6 Мбайт (94%)
Основные цвета : BT.601 PAL
Характеристики трансфера : BT.470 System B, BT.470 System G
Коэффициенты матрицы : BT.601
Аудио
Идентификатор : 189 (0xBD)-128 (0x80)
Формат : AC-3
Формат/Информация : Audio Coding 3
Расширение режима : CM (complete main)
Параметр Endianness формата : Big
Режим смешивания : DVD-Video
Продолжительность : 1 м. 52 с.
Вид битрейта : Постоянный
Битрейт : 192 Кбит/сек
Каналы : 2 канала
Расположение каналов : Front: L R
Частота : 48,0 КГц
Частота кадров : 31,250 кадров/сек (1536 spf)
Метод сжатия : С потерями
Размер потока : 2,57 Мбайт (4%)
Меню


Display posts:    

Current time is: 09-Jul 11:01

All times are UTC ± 0


You cannot post new topics in this forum
You cannot reply to topics in this forum
You cannot edit your posts in this forum
You cannot delete your posts in this forum
You cannot vote in polls in this forum
You cannot attach files in this forum
You cannot download files in this forum

!ATTENTION!
The site does not give electronic versions of products, and is engaged only in a collecting and cataloguing of the references sent and published at a forum by our readers. If you are the legal owner of any submitted material and do not wish that the reference to it was in our catalogue, contact us and we shall immediately remove her. Files for an exchange on tracker are given by users of a site, and the administration does not bear the responsibility for their maintenance. The request to not fill in the files protected by copyrights, and also files of the illegal maintenance!