Важное объявление!
У Нас Все раздачи мультитрекерные, при нуле пиров в релизах, можете смело вставать на закачку!
 
Автор Сообщение

димитри37

Стаж:
4 года 2 месяца
Сообщений:
1236

Репутация: 127

[+] [-]
Вне форума [Профиль] [ЛС]

Piggy / Свинтус
Страна: Великобритания
Жанр: триллер
Год выпуска: 2012
Продолжительность: 01:46:16
Перевод: Любительский (двухголосый)[den904 и DeadSno]
Оригинальная аудиодорожка: английский
Субтитры: нет
Режиссер: Кирон Хоукс / Kieron Hawkes
В ролях: Эд Скрейн, Джошуа Хердман, Пол Андерсон, Мартин Компстон, Нил Мэскелл, Луиз Дилан, Эбони Гилберт, Роланд Манукян, Сьюзэн Фордхэм, Санти Скинелли, Джумэйн Хантер, Дэниэл Харланд
Описание: Джо скромный молодой человек, проживающий в Лондоне, считает, что ему очень наскучила жизнь. А когда убивают его любимого брата, то Джо находит утешение в общении со Свинтусом, старым другом его убитого брата. Свинтус оказывает Джо всяческую помощь и поддержку, но по мере укрепления их дружбы Джо обнаруживает, что он все больше втягивается его в мир насилия и мести...

Сценарий: Кирон Хоукс / Kieron Hawkes
Продюсер: Лео Перлман / Leo Pearlman, Дэнни Поттс / Danny Potts, Патрик Фишер / Patrick Fischer, Joe Moore, Джерри Туми / Gerry Toomey
Оператор: Джеймс Френд / James Friend
Композитор: Bill Ryder-Jones
Бюджет: $900 000
Мировая премьера: 4 мая 2012
Качество: HDRip
Контейнер: AVI
Видео: XviD, 720x304 (2.35:1), 1225 kbps, 24 fps, 0,233 bpp
Аудио №1: Russian: AC3 / 2.0 / 48 kHz / 192 kbps / 16 bit
Аудио №2: English: AC3 / 5.1 / 48 kHz / 448 kbps / 16 bit

Media Info

General
Complete name : G:\Piggy.2012.L2.HDRip.avi
Format : AVI
Format/Info : Audio Video Interleave
File size : 1.40 GiB
Duration : 1h 46mn
Overall bit rate : 1 880 Kbps
Writing application : VirtualDubMod 1.5.10.3 | www.virtualdub-fr.org || (build 2550/release)
Writing library : VirtualDubMod build 2550/release
Video
ID : 0
Format : MPEG-4 Visual
Format profile : Advanced Simple@L5
Format settings, BVOP : 1
Format settings, QPel : No
Format settings, GMC : No warppoints
Format settings, Matrix : Default (H.263)
Codec ID : XVID
Codec ID/Hint : XviD
Duration : 1h 46mn
Bit rate : 1 226 Kbps
Width : 720 pixels
Height : 304 pixels
Display aspect ratio : 2.35:1
Frame rate : 24.000 fps
Color space : YUV
Chroma subsampling : 4:2:0
Bit depth : 8 bits
Scan type : Progressive
Compression mode : Lossy
Bits/(Pixel*Frame) : 0.233
Stream size : 932 MiB (65%)
Writing library : XviD 1.2.1 (UTC 2008-12-04)
Audio #1
ID : 1
Format : AC-3
Format/Info : Audio Coding 3
Mode extension : CM (complete main)
Codec ID : 2000
Duration : 1h 46mn
Bit rate mode : Constant
Bit rate : 192 Kbps
Channel(s) : 2 channels
Channel positions : Front: L R
Sampling rate : 48.0 KHz
Bit depth : 16 bits
Compression mode : Lossy
Stream size : 146 MiB (10%)
Alignment : Split accross interleaves
Interleave, duration : 42 ms (1.00 video frame)
Interleave, preload duration : 500 ms
Audio #2
ID : 2
Format : AC-3
Format/Info : Audio Coding 3
Mode extension : CM (complete main)
Codec ID : 2000
Duration : 1h 46mn
Bit rate mode : Constant
Bit rate : 448 Kbps
Channel(s) : 6 channels
Channel positions : Front: L C R, Side: L R, LFE
Sampling rate : 48.0 KHz
Bit depth : 16 bits
Compression mode : Lossy
Stream size : 341 MiB (24%)
Alignment : Split accross interleaves
Interleave, duration : 42 ms (1.00 video frame)
Interleave, preload duration : 500 ms

Скриншот с названием фильма

Скриншоты

-Источник:
Показать сообщения:    

Текущее время: Сегодня 04:03

Часовой пояс: GMT



Вы не можете начинать темы
Вы не можете отвечать на сообщения
Вы не можете редактировать свои сообщения
Вы не можете удалять свои сообщения
Вы не можете голосовать в опросах
Вы не можете прикреплять файлы к сообщениям
Вы не можете скачивать файлы