Важное объявление!
У Нас Все раздачи мультитрекерные, при нуле пиров в релизах, можете смело вставать на закачку!
 
Автор Сообщение

HUNTER

Стаж:
4 года 4 месяца
Сообщений:
56719

Репутация: 101

[+] [-]
Вне форума [Профиль] [ЛС]

PHP. Уровни 1-2 - Основы веб-разработки, профессиональная веб-разработка--
  • Год выпуска: 2012
  • Страна: Россия
  • Тематика: HTML, CSS, JavaScript, PHP, SQL, программирование
  • Тип материала: Обучающее видео
  • Продолжительность: 21:46:22
  • Автор: Альберт Степанцев - "Школа программирования"
  • Язык: Русский-Описание:
    Для курса «PHP. Уровень 1. Основы веб-разработки» — минимальный уровень подготовки ученика может быть практически нулевым. Знаний PHP не требуется, обучение начинается с самых азов. Тот, кто уже знаком с основами PHP, сможет сконцентрироваться на советах авторов по грамотному оформлению скриптов. Что позволит значительно улучшить культуру написания кода и проектирования веб-приложений.
    «PHP. Уровень 2. Профессиональная веб-разработка» — это самый полный профессиональный курс по освоению PHP на уровне мастера-виртуоза. Это для тех кто уже понимает что такое PHP, каковы мощь и потенциал этого языка. Люди, завершившие курс, утверждают что один месяц обучения по данной программе можно сравнить с годами обучения по книгам или материалам из интернета!

    Что Вы узнаете и чему научитесь:


    «PHP. Уровень 1. Основы веб-разработки» Узнаете:
    • Что такое HTTP
    • Об архитектуре клиент-серверного взаимодействия
    • Об архитектуре протокола HTTP
    • Об основах PHP, таких как:
    – Базовый синтаксис
    – Переменные
    – Константы
    – Типы данных
    – Преобразование типов
    – Операторы и операции
    – Логические операции
    – Операции над строками
    – Приоритетность операторов
    Научитесь
    • Создавать и верстать HTML страницы
    • Устанавливать сервер в связке Apache, PHP и MySQL
    • Проектировать бизнес-логику своих веб-приложений
    • Использовать парадигму функционального программирования
    • Получать и обрабатывать данные пользователя через HTML формы
    • Реализовывать авторизацию пользователей с использованием сессий и куков
    • Работать с файлами на сервере
    • Проектировать фотогалерею и работать с изображениями
    • Взаимодействовать и администрировать Базы Данных MySQL
    • Применять шаблон проектирования MVC
    • Создавать быстрые и безопасные веб-приложения
    • Грамотно применять полученные знания на практике
    В курсе — «PHP. Уровень 2. Профессиональная веб-разработка» Вы научитесь
    • Создавать сайты любой сложности
    • Грамотно организовывать архитектуру баз данных
    • Использовать архитектурный шаблон проектирования MVC
    • Защищать скрипты от SQL-инъекций и других вариантов взлома
    • Максимально использовать возможности Объектно-Ориентированного Программирования
    • Пользоваться шаблонизаторами
    • Использовать оптимальные шаблоны проектирования для решения поставленных задач
    • Применять возможности 5-ой версии языка PHP
    • Правильно организовывать процесс разработки от начала до конца
    • Иметь практический опыт реализации основных современных функциональных решений: авторизация, каталог, галерея, блог, личный кабинет, лента новостей и т.п.
    И многое другое..
    Программа курса «PHP. Уровень 1 Основы веб-разработки»:
    Урок 1. Основы протокола HTTP. Установка веб-сервера. Основы PHP
    Урок 2. Управляющие конструкции. Ветвления и функции
    Урок 3. Циклы и массивы
    Урок 4. HTTP и внешние данные. Запросы HTTP, параметры URL и формы HTML
    Урок 5. Cookies и сессии в PHP
    Урок 6. Работа с файлами в PHP
    Урок 7. Знакомство и работа с базой данных
    Урок 8. Концепция MVC. Архитектурный шаблон-«PHP. Уровень 2. Профессиональная веб-разработка»:
    Урок 1. Системы контроля версий
    Урок 2. Объектно-ориентированное программирование
    Урок 3. Архитектурный шаблон MVC
    Урок 4. Построение View. Шаблонизация. Буферизация + Дополнительный урок
    Урок 5. Построение моделей. PDO
    Урок 6. Построение моделей. PDO. (Продолжение)
    Урок 7. Полезные заметки об архитектуре. Использование внешних библиотек
    Урок 8. Мини-Фреймворк для создания сайтов
    --
  • Качество: PCRec
  • Формат: MP4
  • Видео кодек: AVC
  • Аудио кодек: AAC-LC
  • Видео: avc1, 1280x720, 42.8 kbps, 15 fps
  • Аудио: AAC-LC, 44.1 KHz, 2 ch stereo, 64 Kbps
--

MediaInfo


Код: copyText_writeLink('this.parentNode.parentNode.nextSibling.nextSibling');
Код:
Полное имя                               : D:\Мастер-Класс\PHP. Уровень 1. Основы веб-разработки.  Уровень 2. Профессиональная веб-разработка (2015)\PHP. Уровень 1 Основы веб-разработки\Урок 1. Основы PHP\_2015_1_19_rec-lw-us-9_195334_recording.mp4
Формат                                   : MPEG-4
Профиль формата                          : Base Media
Идентификатор кодека                     : isom
Размер файла                             : 97.4 MiB
Продолжительность                        : 1h 59mn
Общий поток                              : 113 Kbps
Исполнитель                              : "Recording #836047"
Программа кодирования                    : Lavf54.29.104
Video
Идентификатор                            : 1
Формат                                   : AVC
Формат/Информация                        : Advanced Video Codec
Профиль формата                          : Main@L3.1
Параметр CABAC формата                   : Yes
Параметр ReFrames формата                : 4 frames
Идентификатор кодека                     : avc1
Идентификатор кодека/Информация          : Advanced Video Coding
Продолжительность                        : 1h 59mn
Битрейт                                  : 42.8 Kbps
Ширина                                   : 1 280 pixels
Высота                                   : 720 pixels
Соотношение сторон                       : 16:9
Режим частоты кадров                     : Constant
Частота кадров                           : 15.000 fps
Цветовое пространство                    : YUV
Субдискретизация насыщенности            : 4:2:0
Битовая глубина                          : 8 bits
Тип развёртки                            : Progressive
Бит/(Пиксели*Кадры)                      : 0.003
Размер потока                            : 36.8 MiB (38%)
Библиотека кодирования                   : x264 core 132
Настройки программы                      : cabac=1 / ref=1 / deblock=1:0:0 / analyse=0x1:0x111 / me=hex / subme=2 / psy=1 / psy_rd=1.00:0.00 / mixed_ref=0 / me_range=16 / chroma_me=1 / trellis=0 / 8x8dct=0 / cqm=0 / deadzone=21,11 / fast_pskip=1 / chroma_qp_offset=0 / threads=4 / lookahead_threads=1 / sliced_threads=0 / nr=0 / decimate=1 / interlaced=0 / bluray_compat=0 / constrained_intra=0 / bframes=3 / b_pyramid=2 / b_adapt=1 / b_bias=0 / direct=1 / weightb=1 / open_gop=0 / weightp=1 / keyint=250 / keyint_min=15 / scenecut=40 / intra_refresh=0 / rc_lookahead=10 / rc=crf / mbtree=1 / crf=26.0 / qcomp=0.60 / qpmin=0 / qpmax=69 / qpstep=4 / ip_ratio=1.40 / aq=1:1.00
Audio
Идентификатор                            : 2
Формат                                   : AAC
Формат/Информация                        : Advanced Audio Codec
Профиль формата                          : LC
Идентификатор кодека                     : 40
Продолжительность                        : 1h 59mn
Вид битрейта                             : Constant
Битрейт                                  : 64.0 Kbps
Каналы                                   : 2 channels
Расположение каналов                     : Front: L R
Частота                                  : 44.1 KHz
Метод сжатия                             : Lossy
Размер потока                            : 54.9 MiB (56%)

Скриншоты






_________________
Показать сообщения:    

Текущее время: Сегодня 04:13

Часовой пояс: GMT



Вы не можете начинать темы
Вы не можете отвечать на сообщения
Вы не можете редактировать свои сообщения
Вы не можете удалять свои сообщения
Вы не можете голосовать в опросах
Вы не можете прикреплять файлы к сообщениям
Вы не можете скачивать файлы