Ивановский Торрент трекер
Яндекс.Погода
 

[Цитировать]
HUNTER

Пес из Лас-Вегаса / Ровер Денджерфилд / Rover Dangerfield
Страна: США
Жанр: мультфильм, комедия, семейный
Продолжительность: 01:13:39
Год выпуска: 1991
Перевод: Профессиональный (дублированный) Мост Видео
Перевод 2: Авторский (одноголосый закадровый) Юрий Живов
Перевод 3: Авторский (одноголосый закадровый) Алексей Михалёв
Оригинальная аудио-дорожка: есть
Русские субтитры: нет-Режиссёр: Джеймс Л. Джордж, Боб Сили / James L. George, Bob Seeley-Роли озвучивали: Родни Дейнджерфилд, Сьюзэн Бойд, Ронни Шелл, Нед вон Льюк, Шоун Сауфвик, Дэна Хилл, Сэл Ланди, Том Уильямс, Крис Латта, Боб Берген-Описание: Ровер — пушистый, упитанный пес, привык к роскошной жизни в блестящем Лас-Вегасе. Огни большого юрода, ласковая хозяйка-танцовщица, косточки из лучших ресторанов… Но превратности судьбы забрасываю Ровера на самую обыкновенную ферму! Здесь он узнает о жизни мною нового: чтобы тебя кормили — нужно работать, а пасти овец он не умеет. Здесь не видели блестящих огнейрекламы, но любуются светом звезд. Зимой здесь придется бегать по колючему снегу, а не греться на коврике… И волки здесь водятся самыенастоящие. Но что не сделаешь, чтобы добиться уважения хозяев и расположения самой красивой овчарки в деревне? Ровера ожидают тяжелая работа и захватывающие приключения!-Релиз от: -Благодарности:
ilgiz01 - дубляж МОСТ ВИДЕО
savigrand - аудио-дорожка Ю.Живов
charliez - оригинальный ДВД
Lexa1988-L1 - полная перерисовка всех меню
*Sergeant_am* - синхронизация и чистка дороги Мост Видео, полный реавторинг ДВД
Также спасибо человеку, благодаря которому у меня появилась озвучка А.Михалёва.
Ник его остался неизвестным.
-Семпл: http://multi-up.com/1076676-Качество: DVD5 (Custom)
Формат: DVD-Video
Видео: NTSC 16:9 (720x480) VBR, ~6926 kbps
Аудио 1: Русский (Мост Видео), AC3, 2/0 (L,R) ch, 192 kbps
Аудио 2: Русский (Алексей Михалёв), AC3, 2/0 (L,R) ch, 192 kbps
Аудио 3: Русский (Юрий Живов), AC3, 2/0 (L,R) ch, 192 kbps
Аудио 4: Английский, AC3, 2/0 (L,R) ch, 192 kbps
Субтитры: отсутствуют

Используемый софт

PGC Demux - разборка оригинального двд на составляющие
Sony Vegas - синхронизация аудиодорог
useac3to - перекодирование дорог в WAV
iZotope RX - чистка дороги от Мост Видео
Adobe Photoshop - перерисовка меню
DVDSubEdit - редактирование подсветок
DVD Lab - создание анимированного меню на эпизоды
MuxMan - сборка составлящих для ДВД
DVDReMake - окончательная сборка

Отчёт MediaInfo

Общее
Полное имя : D:\Пёс из Лас-Вегаса\VTS_01_1.VOB
Формат : MPEG-PS
Размер файла : 1024 Мбайт
Продолжительность : 18 м.
Режим общего битрейта : Переменный
Общий поток : 7849 Кбит/сек
Видео
Идентификатор : 224 (0xE0)
Формат : MPEG Video
Версия формата : Version 2
Профиль формата : Main@Main
Параметр BVOP формата : Да
Параметр матрицы формата : Выборочная
Параметр GOP формата : M=3, N=12
Продолжительность : 18 м.
Вид битрейта : Переменный
Битрейт : 6925 Кбит/сек
Максимальный битрейт : 9000 Кбит/сек
Ширина : 720 пикселей
Высота : 480 пикселей
Соотношение сторон : 16:9
Частота кадров : 23,976 кадра/сек
Стандарт вещания : NTSC
Цветовое пространство : YUV
Субдискретизация насыщенности : 4:2:0
Битовая глубина : 8 бит
Тип развёртки : Прогрессивная
Порядок развёртки : 2:3 Pulldown
Метод сжатия : С потерями
Бит/(Пиксели*Кадры) : 0.836
Размер потока : 903 Мбайт (88%)
Основные цвета : BT.601 NTSC
Характеристики трансфера : BT.601
Коэффициенты матрицы : BT.601
Аудио #1
Идентификатор : 189 (0xBD)-128 (0x80)
Формат : AC-3
Формат/Информация : Audio Coding 3
Расширение режима : CM (complete main)
Параметр Endianness формата : Big
Режим смешивания : DVD-Video
Продолжительность : 18 м.
Вид битрейта : Постоянный
Битрейт : 192 Кбит/сек
Каналы : 2 канала
Расположение каналов : Front: L R
Частота : 48,0 КГц
Битовая глубина : 16 бит
Метод сжатия : С потерями
Размер потока : 25,0 Мбайт (2%)
Аудио #2
Идентификатор : 189 (0xBD)-129 (0x81)
Формат : AC-3
Формат/Информация : Audio Coding 3
Расширение режима : CM (complete main)
Параметр Endianness формата : Big
Режим смешивания : DVD-Video
Продолжительность : 18 м.
Вид битрейта : Постоянный
Битрейт : 192 Кбит/сек
Каналы : 2 канала
Расположение каналов : Front: L R
Частота : 48,0 КГц
Битовая глубина : 16 бит
Метод сжатия : С потерями
Размер потока : 25,0 Мбайт (2%)
Аудио #3
Идентификатор : 189 (0xBD)-130 (0x82)
Формат : AC-3
Формат/Информация : Audio Coding 3
Расширение режима : CM (complete main)
Параметр Endianness формата : Big
Режим смешивания : DVD-Video
Продолжительность : 18 м.
Вид битрейта : Постоянный
Битрейт : 192 Кбит/сек
Каналы : 2 канала
Расположение каналов : Front: L R
Частота : 48,0 КГц
Битовая глубина : 16 бит
Метод сжатия : С потерями
Размер потока : 25,0 Мбайт (2%)
Аудио #4
Идентификатор : 189 (0xBD)-131 (0x83)
Формат : AC-3
Формат/Информация : Audio Coding 3
Расширение режима : CM (complete main)
Параметр Endianness формата : Big
Режим смешивания : DVD-Video
Продолжительность : 18 м.
Вид битрейта : Постоянный
Битрейт : 192 Кбит/сек
Каналы : 2 канала
Расположение каналов : Front: L R
Частота : 48,0 КГц
Битовая глубина : 16 бит
Метод сжатия : С потерями
Размер потока : 25,0 Мбайт (2%)
Меню

Скриншоты

Скриншоты меню



Показать сообщения:    

Текущее время: 21-Сен 14:01

Часовой пояс: UTC ± 0


Вы не можете начинать темы
Вы не можете отвечать на сообщения
Вы не можете редактировать свои сообщения
Вы не можете удалять свои сообщения
Вы не можете голосовать в опросах
Вы не можете прикреплять файлы к сообщениям
Вы не можете скачивать файлы

!ВНИМАНИЕ!
Сайт не предоставляет электронные версии произведений, а занимается лишь коллекционированием и каталогизацией ссылок, присылаемых и публикуемых на форуме нашими читателями. Если вы являетесь правообладателем какого-либо представленного материала и не желаете, чтобы ссылка на него находилась в нашем каталоге, свяжитесь с нами, и мы незамедлительно удалим ее. Файлы для обмена на трекере предоставлены пользователями сайта, и администрация не несет ответственности за их содержание. Просьба не заливать файлы, защищенные авторскими правами, а также файлы нелегального содержания!