Важное объявление!
У Нас Все раздачи мультитрекерные, при нуле пиров в релизах, можете смело вставать на закачку!
 
Автор Сообщение

HUNTER

Стаж:
4 года 4 месяца
Сообщений:
56722

Репутация: 101

[+] [-]
Вне форума [Профиль] [ЛС]

Pendulum - Live at Rock Am Ring-Год выпуска: 2010
Страна: Германия
Жанр: Drum'n'Bass
Продолжительность: 0:41:48
Описание: Концерт популярнейшей группы на немецком фестивале музыки Rock Am Ring 2010 года
-
Треклист:
1. Salt In The Wounds
2. Granite
3. Voodoo People (Pendulum Remix)
4. Witchcraft
5. The Island - Pt. I (Dawn)
6. Propane Nightmares
7. Watercolour
8. Blood Sugar
-Качество: HDTVRip
Формат: MPEG-TS
Видео кодек: AVC
Аудио кодек: AC3
Видео: 1920x1080, 10.2 Mbps, 25.000 fps
Аудио: 384 Kbps, 48.0 KHz, 6 channels

MediaInfo

Общее
Идентификатор : 1 (0x1)
Полное имя : E:\Торрент\Pendulum.Live.At.Rock.Am.Ring.2010.x264.HDTV(1080i).ts
Формат : MPEG-TS
Размер файла : 3,24 Гбайт
Продолжительность : 41 м.
Общий поток : 11,1 Мбит/сек
Видео
Идентификатор : 1011 (0x3F3)
Идентификатор меню : 1 (0x1)
Формат : AVC
Формат/Информация : Advanced Video Codec
Профиль формата : [url=mailto:Main@L4.0]Main@L4.0[/url]
Параметр CABAC формата : Да
Параметр ReFrames формата : 4 кадра
Параметры GOP формата : M=1, N=6
Идентификатор кодека : 27
Продолжительность : 41 м.
Битрейт : 10,2 Мбит/сек
Ширина : 1920 пикс.
Высота : 1080 пикс.
Соотношение сторон : 16:9
Частота кадров : 25,000 кадр/сек
Цветовое пространство : YUV
Подвыборка цветности : 4:2:0
Битовая глубина : 8 бит
Тип развёртки : Чересстрочная
Порядок развёртки : Верхнее поле первое
Бит/(Пиксели*Кадры) : 0.196
Размер потока : 2,97 Гбайт (92%)
Основные цвета : BT.709-5, BT.1361, IEC 61966-2-4, SMPTE RP177
Характеристики трансфера : BT.709-5, BT.1361
Коэффициенты матрицы : BT.709-5, BT.1361, IEC 61966-2-4 709, SMPTE RP177
Аудио
Идентификатор : 1013 (0x3F5)
Идентификатор меню : 1 (0x1)
Формат : AC-3
Формат/Информация : Audio Coding 3
Расширение режима : CM (complete main)
Идентификатор кодека : 6
Продолжительность : 41 м.
Вид битрейта : Постоянный
Битрейт : 384 Кбит/сек
Каналы : 6 каналов
Расположение каналов : Front: L C R, Side: L R, LFE
Частота : 48,0 КГц
Битовая глубина : 16 бит
Метод сжатия : С потерями
Размер потока : 115 Мбайт (3%)
Язык : English
-

Ссылка на концерт в .mp3

http://ivmaxi.com/viewtopic.php?t=80813
Торрент перезалит. Просьба перекачать и перехешировать.

_________________
Показать сообщения:    

Текущее время: Сегодня 10:08

Часовой пояс: GMT



Вы не можете начинать темы
Вы не можете отвечать на сообщения
Вы не можете редактировать свои сообщения
Вы не можете удалять свои сообщения
Вы не можете голосовать в опросах
Вы не можете прикреплять файлы к сообщениям
Вы не можете скачивать файлы