Важное объявление!
У Нас Все раздачи мультитрекерные, при нуле пиров в релизах, можете смело вставать на закачку!
 
Автор Сообщение

HUNTER

Стаж:
4 года 4 месяца
Сообщений:
56749

Репутация: 101

[+] [-]
Вне форума [Профиль] [ЛС]

-Реальная белка / The Nut Job-«Береги свои орешки!»
-Страна: Канада, Корея Южная, США
Студия: Gulfstream Pictures, Red Rover International, ToonBox Entertainment
Жанр: мультфильм, комедия, приключения, семейный
Год выпуска: 2014
Мировая премьера: 11 января 2014
Российская премьера: 17 апреля 2014, «Двадцатый Век Фокс СНГ», «Каравелла DDC» 3D
Дата выхода DVD: 27 мая 2014, «Lizard Cinema Trade»
Дата выхода Blu-Ray: 27 мая 2014, «Lizard Cinema Trade»
Продолжительность: 01:21:50
Перевод: Профессиональный (дублированный) [Лицензия]
Cубтитры: нет
Оригинальная аудиодорожка: нет-Режиссер: Питер Лепениотис / Peter Lepeniotis-Роли озвучивали: Уилл Арнетт, Брендан Фрейзер, Лиам Нисон, Кэтрин Хайгл, Стивен Лэнг, Майя Рудольф, Джефф Данэм, Гэбриел Иглесиас, Сара Гадон, Джеймс Ранкин...-Роли дублировали: Сергей Бурунов, Николай Басков, Дмитрий Назаров, Анна Чиповская, Максим Виторган...-Описание: Пытаясь выжить в городе, неразлучные друзья — белка Злюк и крысёнок Бадди натыкаются на магазин, до краёв набитый их любимым лакомством — орехами. Чувствуя, что «мечты сбываются», приятели планируют величайшее ограбление в истории грызунов. Но тут совсем некстати нарисовались бедные родственники из парка — прямо 13 друзей арахиса! Однако им всем невдомёк, что магазин орехов — лишь прикрытие для банды грабителей, которые намерены вырыть туннель под банк и подменить мешки с деньгами на мешки с теми самыми орехами.-Бонусы: нет- -Релиз группы: -Качество: DVD5 R5
Формат: DVD-Video
Видео кодек: MPEG2
Аудио кодек: AC3
Видео: PAL 16:9 (720x576(0.598)) MPEG Video, 25,000 кадр/сек, 6200 Кбит/сек
Аудио: Russian (Dolby AC3, 6 ch) 384 Кбит/сек, 48,0 КГц--

DVDInfo
Title: Realnaja.belka.2013.DVD5
Size: 4.20 Gb ( 4 404 174,00 KBytes ) - DVD-5
Enabled regions: 1, 2, 3, 4, 5, 6, 7, 8
VTS_01 :
Play Length: 00:00:04
Video: PAL 16:9 (720x576) VBR, Auto Letterboxed
VTS_02 :
Play Length: 00:00:10
Video: PAL 16:9 (720x576) VBR, Auto Letterboxed
Audio:
Russian (Dolby AC3, 6 ch)
VTS_03 :
Play Length: 00:00:04
Video: PAL 16:9 (720x576) VBR, Auto Letterboxed
VTS_04 :
Play Length: 01:21:50
Video: PAL 16:9 (720x576) VBR, Auto Letterboxed
Audio:
Russian (Dolby AC3, 6 ch)
* Menus Information *
VIDEO_TS Menu
Video:
PAL 16:9 (720x576) VBR
Auto Pan&Scan, Auto Letterboxed
English Language Unit :
Title Menu
VTS_01 Menu
Video:
PAL 16:9 (720x576) VBR
Auto Letterboxed
Audio:
Not specified (Dolby AC3, 2 ch)
English Language Unit :
Root Menu
VTS_02 Menu
Video:
PAL 4:3 (720x576) VBR
English Language Unit :
Root Menu
VTS_03 Menu
Video:
PAL 4:3 (720x576) VBR
English Language Unit :
Root Menu
VTS_04 Menu
Video:
PAL 4:3 (720x576) VBR
English Language Unit :
Root Menu
MediaInfo
Общее
Полное имя : D:\Новинки 2014\Realnaja.belka.2013.DVD5\VIDEO_TS\VTS_04_2.VOB
Формат : MPEG-PS
Размер файла : 1024 Мбайт
Продолжительность : 21 м.
Общий поток : 6710 Кбит/сек
Видео
Идентификатор : 224 (0xE0)
Формат : MPEG Video
Версия формата : Version 2
Профиль формата : Main@Main
Параметр BVOP формата : Да
Параметр матрицы формата : По умолчанию
Параметр GOP формата : M=3, N=12
Продолжительность : 21 м.
Битрейт : 6200 Кбит/сек
Ширина : 720 пикселей
Высота : 576 пикселей
Соотношение сторон : 16:9
Частота кадров : 25,000 кадров/сек
Стандарт вещания : PAL
Цветовое пространство : YUV
Субдискретизация насыщенности : 4:2:0
Битовая глубина : 8 бит
Тип развёртки : Чересстрочная
Порядок развёртки : Верхнее поле первое
Метод сжатия : С потерями
Бит/(Пиксели*Кадры) : 0.598
Временной код первого кадра : 00:21:20:02
Оригинал временного кода : Group of pictures header
Размер потока : 945 Мбайт (92%)
Аудио
Идентификатор : 189 (0xBD)-128 (0x80)
Формат : AC-3
Формат/Информация : Audio Coding 3
Расширение режима : CM (complete main)
Параметр Endianness формата : Big
Режим смешивания : DVD-Video
Продолжительность : 21 м.
Вид битрейта : Постоянный
Битрейт : 384 Кбит/сек
Каналы : 6 каналов
Расположение каналов : Front: L C R, Side: L R, LFE
Частота : 48,0 КГц
Битовая глубина : 16 бит
Метод сжатия : С потерями
Задержка видео : -352 мс.
Размер потока : 58,6 Мбайт (6%)
Скриншоты менюСкриншоты мультфильма
-
-Раздача от группы:

_________________
Показать сообщения:    

Текущее время: Сегодня 23:31

Часовой пояс: GMT



Вы не можете начинать темы
Вы не можете отвечать на сообщения
Вы не можете редактировать свои сообщения
Вы не можете удалять свои сообщения
Вы не можете голосовать в опросах
Вы не можете прикреплять файлы к сообщениям
Вы не можете скачивать файлы