Ивановский Торрент трекер
Яндекс.Погода
 

[Цитировать]
HUNTER

-Пассажиры
Passengers

«Ничто не случайно»
- Год выпуска: 2016
Страна: США (Sony, Columbia Pictures, Village Roadshow Pictures, Start Motion Pictures, Original Film)
Жанр: Фантастика, Драма, Мелодрама, Приключения
Продолжительность: 01:56:11
Перевод: Профессиональный дублированный (лицензия)
Режиссер: Мортен Тильдум / Morten Tyldum-Роли исполняли (дублировали):

Aurora Lane - Дженнифер Лоуренс (Наталья Грачёва)
Jim Preston - Крис Пратт (Сергей Смирнов)
Arthur - Майкл Шин (Василий Дахненко)
Gus Mancuso - Лоренс Фишбёрн (Сергей Чихачев)
Captain Norris - Энди Гарсиа
Executive Officer - Винс Фостер
Communications Officer - Кара Мишель Уайлдер
Crew Member - Конор Брофи
Instructor (Hologram) - Джули Серда (Нина Александрова)
Best Friend - Аврора Перрино (Татьяна Абрамова)
-Описание: Космический корабль с 5 000 пассажирами на борту, погруженных на время полета в искусственный сон, держит курс на планету, которая станет для них новым домом. Всё идет по плану, но из-за сбоя системы двое пассажиров неожиданно просыпаются и понимают, что до конечного пункта путешествия 90 лет пути, и им суждено остаток жизни провести вдвоем в роскошных интерьерах корабля, оснащенного по последнему слову техники. Постепенно Джима и Аврору начинает непреодолимо тянуть друг к другу, но корабль попадает в беду, и теперь в их руках — жизнь и судьба всех обитателей корабля.-Премьера: 14 декабря 2016 (22 декабря 2016)
Бюджет: $110 000 000
Кассовые сборы: $283 432 307

. .

Знаете ли вы, что...

  • Ранее проект готовился на студии Universal, но перешел к Sony Pictures Entertainment.
  • Идея и сценарий фильма разрабатывались на студии Company Films, принадлежащей Киану Ривзу и Стивену Хэймелу.
  • Сценарий Джона Спэйтса, написанный в 2007 году, занял третье место в Черном списке лучших сценариев того года.
  • Изначально на главную роль рассматривался Киану Ривз.
  • В разное время на главную женскую роль претендовали Риз Уизерспун, Рэйчел МакАдамс и Эмили Блант.
  • На одном из постеров сразу под названием картины изображены символы: точка точка точка, тире тире тире, точка точка точка — означающие сигнал S.O.S. в азбуке Морзе.
  • На режиссерское кресло претендовали Габриэле Муччино, Марк Форстер и Брайан Кирк.
  • Крис Пратт и Дженнифер Лоуренс оба участвуют в экранизациях комиксов Marvel. Пратт исполняет роль Питера Квилла (Звездного Лорда) в «Стражах Галактики», а Лоуренс играет Рейвен Даркхолм (Мистик) в саге про «Людей Икс».
  • Примечательно, что героиню Дженнифер Лоуренс зовут Аврора. Так же звали Спящую красавицу из одноименного мультфильма студии Дисней.
  • Стекло скафандра имеет мощный ультрафиолетовый фильтр, из-за чего снаружи оно выглядит зеркальным. Если бы оно было прозрачным, как в фильме, у героев бы сгорело лицо за несколько минут.
    Осторожно, следующие факты содержат спойлеры!
  • Дженнифер Лоуренс призналась, что очень нервничала в интимной сцене с Крисом Пратом, потому что это была первая такая сцена в её карьере и потому, что ей впервые довелось целоваться с женатым актёром. Актриса призналась, что перед съёмками этой сцены выпила для храбрости.
  • Дженнифер Лоуренс утверждает, что фильм «Пассажиры» — первый, где ей пришлось играть постельную сцену. Однако она уже играла в таких сценах с Антоном Ельчиным в фильме «Как сумасшедший» (2011) и с Брэдли Купером в фильме Сюзанны Бир «Серена» (2014).

Ошибки в фильме (осторожно, спойлеры!)

  • В условия невесомости, даже с отключенным питанием, корабль не может взять и резко остановить вращение, как показано в фильме. Это нарушает сразу несколько фундаментальных законов физики.
  • Когда главный герой вручную открывает вентиляцию реактора, в него устремляется не просто огонь, а поток плазмы, то есть заряженных частиц очень большой энергии. В таких условиях никак не может работать радиосвязь.
  • Обмерзание скафандра изнутри, как показано в конце фильма, может быть вызвано лишь ударной разгерметизацией, например, если бы ему оторвало шлем. А с мелкой пробоиной в рукаве скафандр легко справляется без особого ущерба космонавту внутри.
  • В комнате управления реактором, когда возросла температура, Аврора обожглась об рычаг, но при этом все остальные объекты в комнате почему-то не нагрелись и она спокойно к ним прикасается.
  • В лифте, которым пользуются главные герои и который проходит как раз через ось вращения корабля, гравитация должна отсутствовать постоянно, а не только при движении. А вот при движении внутри лифта должно образовываться условное «тяготение», вызванное его ускорением.
Качество: BDRip (by Ash61)
Контейнер: MKV
Формат 3D: Half OverUnder / Вертикальная анаморфная стереопара
Порядок ракурсов: левый ракурс первый-Видео: AVC / 1920х1080p / 23,976 fps / 8213 Kbps
Аудио:
#1 - Русский / AC3 / 48 KHz / 5.1 ch / 640 Kbps (Дубляж - BD Eur)
#2 - Украинский / AC3 / 48 KHz / 5.1 ch / 640 Kbps (Дубляж - BD Eur)
#3 - Английский / AC3 / 48 KHz / 5.1 ch / 640 Kbps (Original)
Субтитры (SRT):
Вшитые (softsub):
#1 - Русские Форсированные [расширенные] (включены по умолчанию)
#2 - Русские Полные
#3 - Украинские Форсированные [расширенные]
#4 - Украинские Полные
#5 - English Full
#6 - English SDH
Внешние (UTF-8):
#1 - Русские Форсированные [расширенные] (включены по умолчанию)
#2 - Украинские Форсированные [расширенные]

MediaInfo

General
Unique ID : 206239199529918063781593188788838313063 (0x9B28399A21B3B8A699195C1F76E7AC67)
Complete name : E:\Passengers(2016)3D-halfOU(Ash61)\Passengers(2016)3D-halfOU(Ash61).mkv
Format : Matroska
Format version : Version 2
File size : 8.39 GiB
Duration : 1h 56mn
Overall bit rate : 10.3 Mbps
Movie name : Пассажиры / Passengers (2016) в 3Д
Encoded date : UTC 2017-03-21 20:17:45
Writing application : mkvmerge v5.8.0 ('No Sleep / Pillow') built on Sep 2 2012 15:37:04
Writing library : libebml v1.2.3 + libmatroska v1.3.0
Video
ID : 1
Format : AVC
Format/Info : Advanced Video Codec
Format profile : High@L4.1
Format settings, CABAC : Yes
Format settings, ReFrames : 4 frames
Codec ID : V_MPEG4/ISO/AVC
Duration : 1h 56mn
Bit rate : 8 213 Kbps
Width : 1 920 pixels
Height : 1 080 pixels
Display aspect ratio : 16:9
Frame rate mode : Constant
Frame rate : 23.976 fps
Color space : YUV
Chroma subsampling : 4:2:0
Bit depth : 8 bits
Scan type : Progressive
Bits/(Pixel*Frame) : 0.165
Stream size : 6.66 GiB (79%)
Title : BDRip by Ash61
Writing library : x264 core 146 r2538 121396c
Encoding settings : cabac=1 / ref=4 / deblock=1:-3:-3 / analyse=0x3:0x113 / me=umh / subme=10 / psy=1 / psy_rd=1.00:0.00 / mixed_ref=1 / me_range=32 / chroma_me=1 / trellis=2 / 8x8dct=1 / cqm=0 / deadzone=21,11 / fast_pskip=1 / chroma_qp_offset=-2 / threads=12 / lookahead_threads=2 / sliced_threads=0 / nr=0 / decimate=1 / interlaced=0 / bluray_compat=0 / constrained_intra=0 / bframes=9 / b_pyramid=2 / b_adapt=2 / b_bias=0 / direct=3 / weightb=1 / open_gop=0 / weightp=2 / keyint=250 / keyint_min=23 / scenecut=40 / intra_refresh=0 / rc_lookahead=60 / rc=crf / mbtree=0 / crf=15.5 / qcomp=0.70 / qpmin=0 / qpmax=69 / qpstep=4 / vbv_maxrate=40000 / vbv_bufsize=30000 / crf_max=0.0 / nal_hrd=none / filler=0 / frame-packing=4 / ip_ratio=1.40 / pb_ratio=1.30 / aq=1:0.70
Language : English
Default : Yes
Forced : No
Audio #1
ID : 2
Format : AC-3
Format/Info : Audio Coding 3
Mode extension : CM (complete main)
Format settings, Endianness : Big
Codec ID : A_AC3
Duration : 1h 56mn
Bit rate mode : Constant
Bit rate : 640 Kbps
Channel(s) : 6 channels
Channel positions : Front: L C R, Side: L R, LFE
Sampling rate : 48.0 KHz
Bit depth : 16 bits
Compression mode : Lossy
Stream size : 532 MiB (6%)
Title : Дубляж - BD Eur
Language : Russian
Default : Yes
Forced : No
Audio #2
ID : 3
Format : AC-3
Format/Info : Audio Coding 3
Mode extension : CM (complete main)
Format settings, Endianness : Big
Codec ID : A_AC3
Duration : 1h 56mn
Bit rate mode : Constant
Bit rate : 640 Kbps
Channel(s) : 6 channels
Channel positions : Front: L C R, Side: L R, LFE
Sampling rate : 48.0 KHz
Bit depth : 16 bits
Compression mode : Lossy
Stream size : 532 MiB (6%)
Title : Дубляж - BD Eur
Language : Ukrainian
Default : No
Forced : No
Audio #3
ID : 4
Format : AC-3
Format/Info : Audio Coding 3
Mode extension : CM (complete main)
Format settings, Endianness : Big
Codec ID : A_AC3
Duration : 1h 56mn
Bit rate mode : Constant
Bit rate : 640 Kbps
Channel(s) : 6 channels
Channel positions : Front: L C R, Side: L R, LFE
Sampling rate : 48.0 KHz
Bit depth : 16 bits
Compression mode : Lossy
Stream size : 532 MiB (6%)
Title : Original
Language : English
Default : No
Forced : No
Text #1
ID : 5
Format : UTF-8
Codec ID : S_TEXT/UTF8
Codec ID/Info : UTF-8 Plain Text
Title : Форсированные (расширенные)
Language : Russian
Default : Yes
Forced : No
Text #2
ID : 6
Format : UTF-8
Codec ID : S_TEXT/UTF8
Codec ID/Info : UTF-8 Plain Text
Title : Полные
Language : Russian
Default : No
Forced : No
Text #3
ID : 7
Format : UTF-8
Codec ID : S_TEXT/UTF8
Codec ID/Info : UTF-8 Plain Text
Title : Форсированные (расширенные)
Language : Ukrainian
Default : No
Forced : No
Text #4
ID : 8
Format : UTF-8
Codec ID : S_TEXT/UTF8
Codec ID/Info : UTF-8 Plain Text
Title : Полные
Language : Ukrainian
Default : No
Forced : No
Text #5
ID : 9
Format : UTF-8
Codec ID : S_TEXT/UTF8
Codec ID/Info : UTF-8 Plain Text
Title : Full
Language : English
Default : No
Forced : No
Text #6
ID : 10
Format : UTF-8
Codec ID : S_TEXT/UTF8
Codec ID/Info : UTF-8 Plain Text
Title : SDH
Language : English
Default : No
Forced : No
Menu
00:00:00.000 : :1
00:07:04.673 : :2
00:14:38.210 : :3
00:20:33.648 : :4
00:25:06.337 : :5
00:30:30.662 : :6
00:40:47.987 : :7
00:50:23.018 : :8
00:57:28.945 : :9
01:02:54.811 : :10
01:10:47.158 : :11
01:17:48.662 : :12
01:25:17.028 : :13
01:31:45.041 : :14
01:37:53.242 : :15
01:42:18.548 : :16

Для оценки 3Д - Анимированные скрины




















21.03.2017. Релиз обновлён - русская и украинская дороги iTunes заменены на лицензионные.
Желающие, скачайте заново торрент-файл.


Показать сообщения:    

Текущее время: 17-Дек 12:14

Часовой пояс: UTC ± 0


Вы не можете начинать темы
Вы не можете отвечать на сообщения
Вы не можете редактировать свои сообщения
Вы не можете удалять свои сообщения
Вы не можете голосовать в опросах
Вы не можете прикреплять файлы к сообщениям
Вы не можете скачивать файлы

!ВНИМАНИЕ!
Сайт не предоставляет электронные версии произведений, а занимается лишь коллекционированием и каталогизацией ссылок, присылаемых и публикуемых на форуме нашими читателями. Если вы являетесь правообладателем какого-либо представленного материала и не желаете, чтобы ссылка на него находилась в нашем каталоге, свяжитесь с нами, и мы незамедлительно удалим ее. Файлы для обмена на трекере предоставлены пользователями сайта, и администрация не несет ответственности за их содержание. Просьба не заливать файлы, защищенные авторскими правами, а также файлы нелегального содержания!