Ивановский Торрент трекер
Яндекс.Погода
DL-List and Torrent activity
Size:  1.95 GB   |    Registered:  6 years 5 months   |    Completed:  423 times
DL-List: None

Seeder not seen: 6 years 3 months

 
     
 
 
 

[Quote]
димитри37

Пародайс. Выпуск 01 (09.06.2013)
Год выпуска: 2013
Страна: Россия
Жанр: Тв-шоу, юмор
Продолжительность: 00:45:43
Перевод: Не требуется
Русские субтитры: нет
Описание: Самые родные голоса России, самые похожие жесты, самые любимые темы. Как настоящие, только лучше. Пока эти парни на сцене, шоу-биз в серьезной опасности! Ведь им ничего не стоит спародировать любую знаменитость. Да так, что мама родная не отличит. Не веришь? Смотри сам! Лучшие пародисты страны собрались на телеканале ПЯТНИЦА! в проекте ПАРОДАЙС ШОУ. Как Алла Пугачева кроет шифером курятник, а Владимир Познер покупает в театральной кассе билеты в Париж? Что Ленин сделал с Ренатой Литвиновой и как пародисты разводят звезд по телефону? Шоу живых пародий ПАРОДАЙС ШОУ на телеканале ПЯТНИЦА! ПРЕМЬЕРА!
Доп. информация: Релиз -

Рип чистый. Без посторонних надписей. Выкладывается как есть.
Качество: DVB
Формат: MPG
Видео кодек: MPG2
Аудио кодек: MP2
Видео: 720x576 @ 768x576 (4:3) 25.00fps 5 810 Kbps, 0.560 bit/pixel
Аудио: MPEG Audio 48000Hz stereo 192 Кбит/сек

Скриншоты

Скринлист

MI

GeneralComplete name : D:\Выкладка\Пародайс. Выпуск 01 (09.06.2013) (2013, Тв-шоу, Юмор, DVB) (MYDIMKA).mpgFormat : MPEG-PSFile size : 1.95 GiBDuration : 45mn 42sOverall bit rate mode : VariableOverall bit rate : 6 120 Kbps
VideoID : 224 (0xE0)Format : MPEG VideoFormat version : Version 2Format profile : Main@MainFormat settings, BVOP : YesFormat settings, Matrix : CustomFormat settings, GOP : M=3, N=24Duration : 45mn 42sBit rate mode : VariableBit rate : 5 807 KbpsMaximum bit rate : 15.0 MbpsWidth : 720 pixelsHeight : 576 pixelsDisplay aspect ratio : 4:3Frame rate : 25.000 fpsStandard : PALColor space : YUVChroma subsampling : 4:2:0Bit depth : 8 bitsScan type : InterlacedScan order : Top Field FirstCompression mode : LossyBits/(Pixel*Frame) : 0.560Time code of first frame : 00:00:00:00Time code source : Group of pictures headerStream size : 1.85 GiB (95%)
AudioID : 192 (0xC0)Format : MPEG AudioFormat version : Version 1Format profile : Layer 2Duration : 45mn 42sBit rate mode : ConstantBit rate : 192 KbpsChannel(s) : 2 channelsSampling rate : 48.0 KHzCompression mode : LossyDelay relative to video : 4msStream size : 62.8 MiB (3%)
-
[iv-torrents.ru].t3880.torrent
Torrent: Registered [ 2013-06-09 22:30 ] · 15702CE2E575CA55B30125FCB520F20CFA3C7F93

Download .torrent

Download

20 KB

Status: checked
Completed: 423 times
Size: 1.95 GB
terms.php


Display posts:    

Current time is: 20-Nov 09:45

All times are UTC ± 0


You cannot post new topics in this forum
You cannot reply to topics in this forum
You cannot edit your posts in this forum
You cannot delete your posts in this forum
You cannot vote in polls in this forum
You cannot attach files in this forum
You can download files in this forum

!ATTENTION!
The site does not give electronic versions of products, and is engaged only in a collecting and cataloguing of the references sent and published at a forum by our readers. If you are the legal owner of any submitted material and do not wish that the reference to it was in our catalogue, contact us and we shall immediately remove her. Files for an exchange on tracker are given by users of a site, and the administration does not bear the responsibility for their maintenance. The request to not fill in the files protected by copyrights, and also files of the illegal maintenance!