Ивановский Торрент трекер
Яндекс.Погода
 

[Цитировать]
димитри37

Парк Юрского Периода Трилогия / Jurassic Park Ultimate Trilogy -- Парк Юрского Периода / Jurassic Park«The most phenomenal discovery of our time... becomes the greatest adventure of all time» Страна: USA
Жанр: фантастика, приключения
Год выпуска: 1993
Продолжительность: 02:06:36
Перевод: Профессиональный (многоголосый, закадровый)
Cубтитры: русские (х2), английские
Оригинальная аудиодорожка: английский
Режиссер: Стивен Спилберг / Steven Spielberg
В ролях: Сэм Нил, Лора Дерн, Джефф Голдблюм, Ричард Аттенборо, Боб Пек, Мартин Ферреро, Джозеф Маццелло, Ариана Ричардс, Сэмюэл Л. Джексон, Б. Д. Вонг
Описание: Экспансивный богач и профессор уговаривает пару ученых-палеонтологов приехать на остров у побережья Коста-Рики, где он устроил реликтовый парк. В парке этом водятся древние зверушки — динозавры, которые по его идее и должны стать гвоздем программы нового аттракциона.
До открытия остается несколько дней, а один из работников, пытаясь продать «рассаду» налево, нарушает систему охраны, что в комплексе с грозовым ливнем приводит к тому, что доисторические животные оказываются на воле, где действуют в соответствии со своими инстинктами.-Доп. информация:
Бюджет: $63 000 000
Кассовые сборы в USA: $357 067 947
Кассовые сборы в мире: $914 691 118
Cлоган: «Самое феноменальное открытие нашего времени ... становится величайшим приключением всех времен»

Оскар 1994. Победитель в номинациях: Лучший звук, Лучший монтаж звука, Лучшие визуальные эффекты
Ratings: 7.9/10
-Тип релиза: BDRip 720p (BluRay 1080p VC-1 DTS-HD MA = 43.8 GB)
Контейнер: MKV
ENCODER: 3Li
Видео: 1280x688 / AVC / ~ 4188 kbps / High@L4.1 / 23,976 fps
Аудио 1: Русский / AC3 / 5.1 / 448 kbps / 48 kHz (многоголосый, закадровый, Киномания)
Аудио 2: Английский / AC3 / 5.1 / 448 kbps / 48 kHz
Аудио 3: Русский / AC3 / 5.1 / 448 kbps / 48 kHz (многоголосый, закадровый, Пифагор) [отдельным файлом]
Аудио 4: Украинский / AC3 / 5.1 / 192 kbps / 48 kHz / (многоголосый, закадровый, 1+1) [отдельным файлом]
Аудио 5: Русский / AC3 / 5.1 / 384 kbps / 48 kHz / (одноголосый, закадровый, Гаврилов) [отдельным файлом]
Аудио 6: Русский / AC3 / 5.1 / 448 kbps / 48 kHz (одноголосый, закадровый, Живов) [отдельным файлом]
Аудио 7: Русский / AC3 / 2.0 / 384 kbps / 48 kHz / (одноголосый, закадровый, Володарский) [отдельным файлом]

Формат субтитров: softsub (SRT)
Sample (~ 29 mb / 60 sec)

MediaInfo

E:\HDTV\Jurassic Park. Trilogy [3Li]\Jurassic Park I\Jurassic.Park.1993.BluRay.720p.x264.AC3-3Li.mkv
General
Unique ID : 219088009071401204948084251867525854262 (0xA4D2D0D28BD0EEC2820DAA0F9A5AB436)
Complete name : E:\HDTV\Jurassic Park. Trilogy [3Li]\Jurassic Park I\Jurassic.Park.1993.BluRay.720p.x264.AC3-3Li.mkv
Format : Matroska
File size : 4.50 GiB
Duration : 2h 6mn
Overall bit rate : 5 083 Kbps
Encoded date : UTC 2012-04-01 08:44:24
Writing application : mkvmerge v5.4.0 ('Piper') built on Mar 10 2012 13:34:39
Writing library : libebml v1.2.3 + libmatroska v1.3.0
Video #1
ID : 1
Format : AVC
Format/Info : Advanced Video Codec
Format profile : High@L4.1
Format settings, CABAC : Yes
Format settings, ReFrames : 6 frames
Muxing mode : Header stripping
Codec ID : V_MPEG4/ISO/AVC
Duration : 2h 6mn
Bit rate : 4 188 Kbps
Width : 1 280 pixels
Height : 688 pixels
Display aspect ratio : 1.860
Frame rate : 23.976 fps
Color space : YUV
Chroma subsampling : 4:2:0
Bit depth : 8 bits
Scan type : Progressive
Bits/(Pixel*Frame) : 0.198
Stream size : 3.61 GiB (80%)
Title : Jurassic Park By 3Li
Writing library : x264 core 116 r2074 2641b9e
Encoding settings : cabac=1 / ref=6 / deblock=1:-3:-3 / analyse=0x3:0x113 / me=umh / subme=9 / psy=1 / psy_rd=0.60:0.00 / mixed_ref=1 / me_range=32 / chroma_me=1 / trellis=1 / 8x8dct=1 / cqm=0 / deadzone=21,11 / fast_pskip=0 / chroma_qp_offset=-2 / threads=3 / sliced_threads=0 / nr=0 / decimate=0 / interlaced=0 / bluray_compat=0 / constrained_intra=0 / bframes=3 / b_pyramid=2 / b_adapt=2 / b_bias=0 / direct=1 / weightb=1 / open_gop=0 / weightp=2 / keyint=250 / keyint_min=23 / scenecut=40 / intra_refresh=0 / rc_lookahead=40 / rc=2pass / mbtree=1 / bitrate=4188 / ratetol=1.0 / qcomp=0.60 / qpmin=10 / qpmax=51 / qpstep=4 / cplxblur=20.0 / qblur=0.5 / ip_ratio=1.40 / aq=1:1.00
Language : English
Audio #2
ID : 2
Format : AC-3
Format/Info : Audio Coding 3
Mode extension : CM (complete main)
Muxing mode : Header stripping
Codec ID : A_AC3
Duration : 2h 6mn
Bit rate mode : Constant
Bit rate : 448 Kbps
Channel(s) : 6 channels
Channel positions : Front: L C R, Side: L R, LFE
Sampling rate : 48.0 KHz
Bit depth : 16 bits
Compression mode : Lossy
Stream size : 406 MiB (9%)
Title : AC3 5.1 @ 448 kbps [Kinamania]
Language : Russian
Audio #3
ID : 3
Format : AC-3
Format/Info : Audio Coding 3
Mode extension : CM (complete main)
Muxing mode : Header stripping
Codec ID : A_AC3
Duration : 2h 6mn
Bit rate mode : Constant
Bit rate : 448 Kbps
Channel(s) : 6 channels
Channel positions : Front: L C R, Side: L R, LFE
Sampling rate : 48.0 KHz
Bit depth : 16 bits
Compression mode : Lossy
Stream size : 406 MiB (9%)
Title : AC3 5.1 @ 448 kbps
Language : English
Text #4
ID : 4
Format : UTF-8
Codec ID : S_TEXT/UTF8
Codec ID/Info : UTF-8 Plain Text
Title : Russian 1
Language : Russian
Text #5
ID : 5
Format : UTF-8
Codec ID : S_TEXT/UTF8
Codec ID/Info : UTF-8 Plain Text
Title : Russian 2
Language : Russian
Text #6
ID : 6
Format : UTF-8
Codec ID : S_TEXT/UTF8
Codec ID/Info : UTF-8 Plain Text
Title : English
Language : English

Скриншоты

-- Парк Юрского Периода 2: Затерянный мир / The Lost World: Jurassic Park«Something has survived» Страна: USA
Жанр: фантастика, боевик, триллер, приключения
Год выпуска: 1997
Продолжительность: 02:08:40
Перевод: Профессиональный (многоголосый, закадровый)
Cубтитры: русские (х2), английские
Оригинальная аудиодорожка: английский
Режиссер: Стивен Спилберг / Steven Spielberg
В ролях: Джефф Голдблюм, Джулианна Мур, Пит Постлетуэйт, Ричард Аттенборо, Винс Вон, Арлисс Ховард, Ванесса Ли Честер, Петер Стормаре, Харви Джейсон, Ричард Шифф
Описание: События этого фильма разворачиваются через четыре года после того, что произошло в «Парке Юрского периода». На близлежащем острове динозавры выжили и адаптировались к дикой природе. Но вот находится Некто, кто хочет перевезти их на материк и заработать на этом, не понимая, какими могут быть последствия, и посылает на остров своих людей.
Джон Хэммонд, который потерял контроль над своей компанией, считает, что у него появился шанс исправить свои прошлые ошибки. Он, в свою очередь, снаряжает экспедицию во главе с Яном Малкольмом, чтобы появиться там до высадки наемников.
В результате происходящих событий две эти конфликтующие группы вынуждены объединиться перед лицом смертельной опасности. И, как потом выясняется, времени им отпущено совсем немного.-Доп. информация:
Бюджет: $73 000 000
Кассовые сборы в USA: $229 086 679
Кассовые сборы в мире: $618 638 999
Cлоган: «Но все-таки кто-то выжил»

Оскар 1998. Номинации: Лучшие визуальные эффекты
Ratings: 6.2/10
-Тип релиза: BDRip 720p (BluRay 1080p VC-1 DTS-HD MA = 44.4 GB)
Контейнер: MKV
ENCODER: 3Li
Видео: 1280x688 / AVC / ~ 4110 kbps / High@L4.1 / 23,976 fps
Аудио 1: Русский / AC3 / 5.1 / 448 kbps / 48 kHz (многоголосый, закадровый, Киномания)
Аудио 2: Английский / AC3 / 5.1 / 448 kbps / 48 kHz
Аудио 3: Русский / AC3 / 5.1 / 448 kbps / 48 kHz (многоголосый, закадровый, Пифагор) [отдельным файлом]
Аудио 4: Русский / AC3 / 2.0 / 256 kbps / 48 kHz (дублированный, Ист-Вест с VHS) [отдельным файлом]
Аудио 5: Русский / AC3 / 5.1 / 448 kbps / 48 kHz (одноголосый, закадровый, Живов) [отдельным файлом]
Аудио 6: Русский / AC3 / 2.0 / 192 kbps / 48 kHz (одноголосый, закадровый, неизвестный с VHS) (отпишитесь, кто определит) [отдельным файлом]

Формат субтитров: softsub (SRT)
Sample (~ 32 mb / 60 sec)

MediaInfo

E:\HDTV\Jurassic Park. Trilogy [3Li]\The Lost World Jurassic Park\The.Lost.World.Jurassic.Park.1997.BluRay.720p.x264.AC3-3Li.mkv
General
Unique ID : 232427763091574600651441702898858079711 (0xAEDBF5797462ACF4AF9A4CDEE6FE35DF)
Complete name : E:\HDTV\Jurassic Park. Trilogy [3Li]\The Lost World Jurassic Park\The.Lost.World.Jurassic.Park.1997.BluRay.720p.x264.AC3-3Li.mkv
Format : Matroska
File size : 4.50 GiB
Duration : 2h 8mn
Overall bit rate : 5 006 Kbps
Encoded date : UTC 2012-04-01 09:07:31
Writing application : mkvmerge v5.4.0 ('Piper') built on Mar 10 2012 13:34:39
Writing library : libebml v1.2.3 + libmatroska v1.3.0
Video #1
ID : 1
Format : AVC
Format/Info : Advanced Video Codec
Format profile : High@L4.1
Format settings, CABAC : Yes
Format settings, ReFrames : 6 frames
Muxing mode : Header stripping
Codec ID : V_MPEG4/ISO/AVC
Duration : 2h 8mn
Bit rate : 4 110 Kbps
Width : 1 280 pixels
Height : 688 pixels
Display aspect ratio : 1.860
Frame rate : 23.976 fps
Color space : YUV
Chroma subsampling : 4:2:0
Bit depth : 8 bits
Scan type : Progressive
Bits/(Pixel*Frame) : 0.195
Stream size : 3.60 GiB (80%)
Title : The Lost World Jurassic Park By 3Li
Writing library : x264 core 116 r2074 2641b9e
Encoding settings : cabac=1 / ref=6 / deblock=1:-3:-3 / analyse=0x3:0x113 / me=umh / subme=9 / psy=1 / psy_rd=0.80:0.00 / mixed_ref=1 / me_range=32 / chroma_me=1 / trellis=1 / 8x8dct=1 / cqm=0 / deadzone=21,11 / fast_pskip=0 / chroma_qp_offset=-2 / threads=3 / sliced_threads=0 / nr=0 / decimate=0 / interlaced=0 / bluray_compat=0 / constrained_intra=0 / bframes=3 / b_pyramid=2 / b_adapt=2 / b_bias=0 / direct=1 / weightb=1 / open_gop=0 / weightp=2 / keyint=250 / keyint_min=23 / scenecut=40 / intra_refresh=0 / rc_lookahead=40 / rc=2pass / mbtree=1 / bitrate=4110 / ratetol=1.0 / qcomp=0.60 / qpmin=10 / qpmax=51 / qpstep=4 / cplxblur=20.0 / qblur=0.5 / ip_ratio=1.40 / aq=1:1.00
Language : English
Audio #2
ID : 2
Format : AC-3
Format/Info : Audio Coding 3
Mode extension : CM (complete main)
Muxing mode : Header stripping
Codec ID : A_AC3
Duration : 2h 8mn
Bit rate mode : Constant
Bit rate : 448 Kbps
Channel(s) : 6 channels
Channel positions : Front: L C R, Side: L R, LFE
Sampling rate : 48.0 KHz
Bit depth : 16 bits
Compression mode : Lossy
Stream size : 412 MiB (9%)
Title : AC3 5.1 @ 448kbps [Kinomania]
Language : Russian
Audio #3
ID : 3
Format : AC-3
Format/Info : Audio Coding 3
Mode extension : CM (complete main)
Muxing mode : Header stripping
Codec ID : A_AC3
Duration : 2h 8mn
Bit rate mode : Constant
Bit rate : 448 Kbps
Channel(s) : 6 channels
Channel positions : Front: L C R, Side: L R, LFE
Sampling rate : 48.0 KHz
Bit depth : 16 bits
Compression mode : Lossy
Stream size : 412 MiB (9%)
Title : AC3 5.1 @ 448 kbps
Language : English
Text #4
ID : 4
Format : UTF-8
Codec ID : S_TEXT/UTF8
Codec ID/Info : UTF-8 Plain Text
Title : Russian 1
Language : Russian
Text #5
ID : 5
Format : UTF-8
Codec ID : S_TEXT/UTF8
Codec ID/Info : UTF-8 Plain Text
Title : Russian 2
Language : Russian
Text #6
ID : 6
Format : UTF-8
Codec ID : S_TEXT/UTF8
Codec ID/Info : UTF-8 Plain Text
Title : Eng, SRT
Language : English

Скриншоты

-- Парк Юрского Периода 3 / Jurassic Park III«With every sound, with every heartbeat, there will be more to fear than ever before» Страна: USA
Жанр: фантастика, боевик, триллер, приключения
Год выпуска: 2001
Продолжительность: 01:32:20
Перевод: Профессиональный (дублированный)
Cубтитры: русские (х3), английские
Оригинальная аудиодорожка: английский
Режиссер: Джо Джонстон / Joe Johnston
В ролях: Сэм Нил, Уильям Х. Мэйси, Теа Леони, Алессандро Нивола, Тревор Морган, Майкл Джитер, Джон Дил, Брюс А. Янг, Лора Дерн, Тейлор Николс
Описание: Герой Сэма Нила, палеонтолог Алан Грант, принимает предложение состоятельного предпринимателя совершить обзорную экскурсию над печально знаменитым островом Сорна на специально нанятом самолете. Мог ли доктор Грант предполагать, что страшная, непредвиденная катастрофа снова заставит его столкнуться со свирепыми плотоядными существами из прошлого?!
Более того, с момента ужасных событий картины «Парк Юрского периода» динозавры стали хитрее, сильнее и несоизмеримо опасней. Начинается новая, стремительная и жуткая гонка на выживание, в сравнении с которой все прошлые похождения доктора Гранта — лишь детские игрушки!-Доп. информация:
Бюджет: $93 000 000
Кассовые сборы в USA: $181 171 875
Кассовые сборы в мире: $368 780 809
Cлоган: «С каждым звуком, с каждым ударом сердца, не будет больше страха, чем когда-либо прежде»

Золотая малина 2002. Номинации: Худший римейк/сиквел
Ratings: 5.8/10
-Тип релиза: BDRip 720p (BluRay ReMux 1080p VC-1 DTS-HD MA-KRaLiMaRKo = 22.5 GB)
Контейнер: MKV
ENCODER: 3Li
Видео: 1280x688 / AVC / ~ 4206 kbps / High@L4.1 / 23,976 fps
Аудио 1: Русский / AC3 / 5.1 / 448 kbps / 48 kHz (многоголосый, закадровый, Киномания)
Аудио 2: Английский / AC3 / 5.1 / 448 kbps / 48 kHz
Аудио 3: Русский / AC3 / 5.1 / 448 kbps / 48 kHz (дублированный, Ист-Вест) [отдельным файлом]
Аудио 4: Украинский / AC3 / 2.0 / 384 kbps / 48 kHz (многоголосый, закадровый, 1+1) [отдельным файлом]
Аудио 5: Русский / AC3 / 5.1 / 448 kbps / 48 kHz (одноголосый, закадровый, Гланц) [отдельным файлом]
Аудио 6: Русский / AC3 / 5.1 / 448 kbps / 48 kHz (одноголосый, закадровый, Живов) [отдельным файлом]
Аудио 7: Русский / AC3 / 2.0 / 192 kbps / 48 kHz (одноголосый, закадровый, Дольский, с VHS) [отдельным файлом]
Аудио 8: Русский / AC3 / 2.0 / 192 kbps / 48 kHz (одноголосый, закадровый, Визгунов, с VHS) [отдельным файлом]
Аудио 9: Русский / AC3 / 2.0 / 192 kbps / 48 kHz (одноголосый, закадровый, неизвестный, с VHS) (отпишитесь, кто определит) [отдельным файлом]

Формат субтитров: softsub (SRT)
Sample (~ 20.5 mb / 60 sec)

MediaInfo

E:\HDTV\Jurassic Park. Trilogy [3Li]\Jurassic Park III\Jurassic.Park.III.2001.BluRay.720p.x264.AC3-3Li.mkv
General
Unique ID : 196188000014713930463947510325782977503 (0x93986F348FCC78B3B17E5C1F9D6B1BDF)
Complete name : E:\HDTV\Jurassic Park. Trilogy [3Li]\Jurassic Park III\Jurassic.Park.III.2001.BluRay.720p.x264.AC3-3Li.mkv
Format : Matroska
File size : 3.29 GiB
Duration : 1h 32mn
Overall bit rate : 5 102 Kbps
Encoded date : UTC 2012-04-01 08:55:30
Writing application : mkvmerge v5.4.0 ('Piper') built on Mar 10 2012 13:34:39
Writing library : libebml v1.2.3 + libmatroska v1.3.0
Video #1
ID : 1
Format : AVC
Format/Info : Advanced Video Codec
Format profile : High@L4.1
Format settings, CABAC : Yes
Format settings, ReFrames : 6 frames
Muxing mode : Header stripping
Codec ID : V_MPEG4/ISO/AVC
Duration : 1h 32mn
Bit rate : 4 206 Kbps
Width : 1 280 pixels
Height : 688 pixels
Display aspect ratio : 1.860
Frame rate : 23.976 fps
Color space : YUV
Chroma subsampling : 4:2:0
Bit depth : 8 bits
Scan type : Progressive
Bits/(Pixel*Frame) : 0.199
Stream size : 2.65 GiB (80%)
Title : Jurassic Park 3 By 3Li
Writing library : x264 core 116 r2074 2641b9e
Encoding settings : cabac=1 / ref=6 / deblock=1:-3:-3 / analyse=0x3:0x113 / me=umh / subme=9 / psy=1 / psy_rd=0.60:0.00 / mixed_ref=1 / me_range=32 / chroma_me=1 / trellis=1 / 8x8dct=1 / cqm=0 / deadzone=21,11 / fast_pskip=0 / chroma_qp_offset=-2 / threads=3 / sliced_threads=0 / nr=0 / decimate=0 / interlaced=0 / bluray_compat=0 / constrained_intra=0 / bframes=3 / b_pyramid=2 / b_adapt=2 / b_bias=0 / direct=1 / weightb=1 / open_gop=0 / weightp=2 / keyint=250 / keyint_min=23 / scenecut=40 / intra_refresh=0 / rc_lookahead=40 / rc=2pass / mbtree=1 / bitrate=4206 / ratetol=1.0 / qcomp=0.60 / qpmin=10 / qpmax=51 / qpstep=4 / cplxblur=20.0 / qblur=0.5 / ip_ratio=1.40 / aq=1:1.00
Language : English
Audio #2
ID : 2
Format : AC-3
Format/Info : Audio Coding 3
Mode extension : CM (complete main)
Muxing mode : Header stripping
Codec ID : A_AC3
Duration : 1h 32mn
Bit rate mode : Constant
Bit rate : 448 Kbps
Channel(s) : 6 channels
Channel positions : Front: L C R, Side: L R, LFE
Sampling rate : 48.0 KHz
Bit depth : 16 bits
Compression mode : Lossy
Stream size : 296 MiB (9%)
Title : AC3 5.1 @ 448 kbps [Kinomania]
Language : Russian
Audio #3
ID : 3
Format : AC-3
Format/Info : Audio Coding 3
Mode extension : CM (complete main)
Muxing mode : Header stripping
Codec ID : A_AC3
Duration : 1h 32mn
Bit rate mode : Constant
Bit rate : 448 Kbps
Channel(s) : 6 channels
Channel positions : Front: L C R, Side: L R, LFE
Sampling rate : 48.0 KHz
Bit depth : 16 bits
Compression mode : Lossy
Stream size : 296 MiB (9%)
Title : AC3 5.1 @ 448 kbps
Language : English
Text #4
ID : 4
Format : UTF-8
Codec ID : S_TEXT/UTF8
Codec ID/Info : UTF-8 Plain Text
Title : Rus Fors
Language : Russian
Text #5
ID : 5
Format : UTF-8
Codec ID : S_TEXT/UTF8
Codec ID/Info : UTF-8 Plain Text
Title : Rus 1, SRT
Language : Russian
Text #6
ID : 6
Format : UTF-8
Codec ID : S_TEXT/UTF8
Codec ID/Info : UTF-8 Plain Text
Title : Rus 2, SRT
Language : Russian
Text #7
ID : 7
Format : UTF-8
Codec ID : S_TEXT/UTF8
Codec ID/Info : UTF-8 Plain Text
Title : English
Language : English

Скриншоты

Показать сообщения:    

Текущее время: 17-Окт 19:42

Часовой пояс: UTC - 1


Вы не можете начинать темы
Вы не можете отвечать на сообщения
Вы не можете редактировать свои сообщения
Вы не можете удалять свои сообщения
Вы не можете голосовать в опросах
Вы не можете прикреплять файлы к сообщениям
Вы не можете скачивать файлы

!ВНИМАНИЕ!
Сайт не предоставляет электронные версии произведений, а занимается лишь коллекционированием и каталогизацией ссылок, присылаемых и публикуемых на форуме нашими читателями. Если вы являетесь правообладателем какого-либо представленного материала и не желаете, чтобы ссылка на него находилась в нашем каталоге, свяжитесь с нами, и мы незамедлительно удалим ее. Файлы для обмена на трекере предоставлены пользователями сайта, и администрация не несет ответственности за их содержание. Просьба не заливать файлы, защищенные авторскими правами, а также файлы нелегального содержания!