Ивановский Торрент трекер
Яндекс.Погода
 

[Цитировать]
HUNTER

Парень по имени Джо / A Guy Named Joe- Год выпуска: 1943
Страна: США
Жанр: фэнтези, драма, мелодрама, военный
Продолжительность: 01:59:56
Перевод: Одноголосый закадровый – А. Багичев
Оригинальная аудиодорожка: Английская
Cубтитры: Английские-Режиссер: Виктор Флеминг / Victor Fleming
В ролях: Спенсер Трэйси, Айрин Данн, Ван Джонсон, Уорд Бонд, Джеймс Глисон, Лайонел Бэрримор, Бэрри Нельсон, Эстер Уильямс, Генри О’Нилл, Дон ДеФор.-Описание:
Вторая Мировая война. Пилот бомбардировщика майор Пит Сэндидж погибает во время боевого вылета. Неожиданно он обнаруживает себя в потустороннем мире, способным следить за происходящими на земле событиями, но, не имея возможности вмешиваться в них. Он становится ангелом-хранителем для молодого пилота ВВС капитана Теда Рэндалла. Но вскоре Сэндидж замечает, что Рэндалл влюбляется в его бывшую невесту Доринду. Что делать Сэндиджу: прекратить оберегать Рэндалла или дать ему возможность обрести человеческое счастье с Дориндой?
В 1989 году Стивен Спилберг снял ремейк под названием «Всегда».-За доступность перевода спасибо: alinto, Der eiserne Wolf, Cybernn, Магда, babek555, jasenka, eagle64, surzhoks, leoder, lafajet, умелец54. Наложение чистого голоса на оригинальную дорогу - Нордер.
| IMDb | Сэмпл-Качество: WEB-DL 720p (SbR)
Контейнер: MKV
Видео: AVC, 988x720 (1.37:1), 23.976 fps, 4012 kbps
Аудио 1: Русский AC3 2.0, 48 kHz, 192 kbps
Аудио 2: Английский AC3 2.0, 48 kHz, 192 kbps
Аудио 3: Английский AAC 2.0, 48 kHz, 116 kbps

Скриншоты


MI

General
Unique ID : 196654902873482274557529007741266057427 (0x93F25B4B269B3AE9A85EB6AE2B6C58D3)
Complete name : A.Guy.Named.Joe.1943.720p.WEB-DL.H.264-SbR.mkv
Format : Matroska
Format version : Version 2
File size : 3.78 GiB
Duration : 1h 59mn
Overall bit rate : 4 515 Kbps
Movie name : A Guy Named Joe / Парень по имени Джо (1943) – RuTracker
Encoded date : UTC 2015-07-05 15:55:26
Writing application : mkvmerge v7.5.0 ('Glass Culture') 64bit built on Jan 4 2015 16:48:44
Writing library : libebml v1.3.1 + libmatroska v1.4.2
Attachements : cover.jpg
Video
ID : 1
Format : AVC
Format/Info : Advanced Video Codec
Format profile : High@L3.1
Format settings, CABAC : No
Format settings, ReFrames : 2 frames
Codec ID : V_MPEG4/ISO/AVC
Duration : 1h 59mn
Width : 988 pixels
Height : 720 pixels
Display aspect ratio : 1.372
Frame rate mode : Constant
Frame rate : 23.976 fps
Color space : YUV
Chroma subsampling : 4:2:0
Bit depth : 8 bits
Scan type : Progressive
Title : A.Guy.Named.Joe.1943.720p.WEB-DL.AAC2.0.H.264-SbR.mkv
Language : English
Default : Yes
Forced : No
Color primaries : BT.709
Transfer characteristics : BT.709
Matrix coefficients : BT.709
Color range : Limited
Audio #1
ID : 2
Format : AC-3
Format/Info : Audio Coding 3
Mode extension : CM (complete main)
Format settings, Endianness : Big
Codec ID : A_AC3
Duration : 1h 59mn
Bit rate mode : Constant
Bit rate : 192 Kbps
Channel(s) : 2 channels
Channel positions : Front: L R
Sampling rate : 48.0 KHz
Bit depth : 16 bits
Compression mode : Lossy
Stream size : 165 MiB (4%)
Title : VO – А.Багичев
Language : Russian
Default : Yes
Forced : No
Audio #2
ID : 3
Format : AC-3
Format/Info : Audio Coding 3
Mode extension : CM (complete main)
Format settings, Endianness : Big
Codec ID : A_AC3
Duration : 1h 59mn
Bit rate mode : Constant
Bit rate : 192 Kbps
Channel(s) : 2 channels
Channel positions : Front: L R
Sampling rate : 48.0 KHz
Bit depth : 16 bits
Compression mode : Lossy
Stream size : 165 MiB (4%)
Title : Original (DVD)
Language : English
Default : No
Forced : No
Audio #3
ID : 4
Format : AAC
Format/Info : Advanced Audio Codec
Format profile : LC
Codec ID : A_AAC
Duration : 1h 59mn
Channel(s) : 2 channels
Channel positions : Front: L R
Sampling rate : 48.0 KHz
Compression mode : Lossy
Title : Original (iTunes)
Language : English
Default : No
Forced : No
Text
ID : 5
Format : UTF-8
Codec ID : S_TEXT/UTF8
Codec ID/Info : UTF-8 Plain Text
Language : English
Default : No
Forced : No
Menu
00:00:00.000 : en:Chapter 01
00:09:32.000 : en:Chapter 02
00:18:31.000 : en:Chapter 03
00:28:07.000 : en:Chapter 04
00:38:51.000 : en:Chapter 05
00:51:34.000 : en:Chapter 06
01:03:41.000 : en:Chapter 07
01:15:09.000 : en:Chapter 08
01:26:59.000 : en:Chapter 09
01:38:09.000 : en:Chapter 10
01:46:56.000 : en:Chapter 11
01:58:13.000 : en:Chapter 12
Показать сообщения:    

Текущее время: 21-Сен 04:14

Часовой пояс: UTC - 1


Вы не можете начинать темы
Вы не можете отвечать на сообщения
Вы не можете редактировать свои сообщения
Вы не можете удалять свои сообщения
Вы не можете голосовать в опросах
Вы не можете прикреплять файлы к сообщениям
Вы не можете скачивать файлы

!ВНИМАНИЕ!
Сайт не предоставляет электронные версии произведений, а занимается лишь коллекционированием и каталогизацией ссылок, присылаемых и публикуемых на форуме нашими читателями. Если вы являетесь правообладателем какого-либо представленного материала и не желаете, чтобы ссылка на него находилась в нашем каталоге, свяжитесь с нами, и мы незамедлительно удалим ее. Файлы для обмена на трекере предоставлены пользователями сайта, и администрация не несет ответственности за их содержание. Просьба не заливать файлы, защищенные авторскими правами, а также файлы нелегального содержания!