Важное объявление!
У Нас Все раздачи мультитрекерные, при нуле пиров в релизах, можете смело вставать на закачку!
 
Автор Сообщение

HUNTER

Стаж:
4 года 4 месяца
Сообщений:
56790

Репутация: 101

[+] [-]
Вне форума [Профиль] [ЛС]

Охотники на ведьм
Hansel & Gretel: Witch Hunters
Год выпуска: 2013
Страна: США, Германия (Paramaunt Pictures, Metro-Goldwin-Mayer, MTV Films, Gary Sanchez Productions)
Жанр: Ужасы, Фэнтези, Боевик
Продолжительность: 01:27:56
Перевод: Профессиональный (дублированный)
Русские субтитры: есть
Режиссер: Томми Виркола / Tommy Wirkola-Роли исполняли (дублировали):

Hansel - Джереми Реннер (Илья Исаев)
Gretel - Джемма Артертон (Ирина Киреева)
Muriel - Фамке Янссен (Ольга Плетнёва)
Mina - Пихла Виитала
Edward - Дерек Мирс
Edward, озвучка - Робин Аткин Даунс
Horned Witch - Ингрид Болсай Бердал
Red Haired Witch - Джоэнна Кулиг
Ben - Томас Манн (Николай Быстров)
Sheriff Berringer - Петер Стормаре (Андрей Данилюк)
Jackson - Бьорн Сундквист (Алексей Борзунов)
Mayor Engleman - Райнер Бок (Андрей Казанцев)
-Описание: Едва не погибнув в лапах ужасной ведьмы, Ганзель и Гретель стали только сильнее. Одержимые местью, они ведут отчаянную борьбу со злом, даже не подозревая, что их поджидает нечто куда более опасное… собственное прошлое…

Знаете ли вы, что...:

  • Первоначально на роль Гретель пробовались Дайан Крюгер, Ева Грин и Нуми Рапас.
  • В своем интервью на фестивале в Каннах в 2011 году Фамке Янссен заявила, что она согласилась на роль предводительницы ведьм, потому что ей нужно было выплачивать долги. Янссен неоднократно упоминала, начиная с 2007 года, что готовит фильм «Плохая мамочка» (2011), где она дебютировала как режиссер/сценарист. Финансирование и распространение фильма пережили нелегкие времена, отчасти из-за экономического кризиса 2008 года. К тому же она практически нигде не снималась в тот период.

Техн. детали съёмки

  • Съёмки: 13 марта 2011 — 3 июня 2011
  • Формат изображения: 2.35 : 1
  • Камера: Arri Alexa, Zeiss Master Prime and Angenieux Optimo Lenses
  • Формат копии: 35 mm (anamorphic) (Kodak Vision 2383)
    D-Cinema (also 3-D version)
  • Формат съёмок: SxS Pro
Премьера: 19 января 2013 (17 января 2013)
Релиз на DVD и Blu-Ray: 11 июня 2013
Бюджет: $50 000 000
Кассовые сборы: $225 703 475

. .
-Качество: BDRip (by Ash61)
Контейнер: MKV
Формат 3D: Half OverUnder / Вертикальная анаморфная стереопара
Порядок ракурсов: левый ракурс первый
Видео кодек: x264
Аудио кодек: AC3-Видео: AVC / 23,976 fps / 1920х1080p / 11.5 Mbps
Аудио:
#1 - Русский / AC3 / 48 KHz / 5.1 ch / 640 Kbps (Дубляж - BD 2D)
#2 - Английский / AC3 / 48 KHz / 5.1 ch / 640 Kbps (Original)
Субтитры Внешние (SRT UTF-8):
#1 - Русские Полные
#2 - Украинские Полные
#3 - English Full

MediaInfo

General
Unique ID : 179522186664823121130580664933750253195 (0x870EB72ADFEB5D9DB438FE20571DA68B)
Complete name : G:\Downloads\Hansel&Gretel.WitchHunters(3D)2013(Ash61)Lic\Hansel&Gretel.WitchHunters(3D)2013(Ash61)Lic.mkv
Format : Matroska
Format version : Version 2
File size : 8.03 GiB
Duration : 1h 27mn
Overall bit rate : 13.1 Mbps
Movie name : Охотники на ведьм / Hansel & Gretel: Witch Hunters (3D) 2013
Encoded date : UTC 2013-06-06 14:43:04
Writing application : mkvmerge v5.8.0 ('No Sleep / Pillow') built on Sep 2 2012 15:37:04
Writing library : libebml v1.2.3 + libmatroska v1.3.0
Video
ID : 1
Format : AVC
Format/Info : Advanced Video Codec
Format profile : High@L4.1
Format settings, CABAC : Yes
Format settings, ReFrames : 4 frames
Codec ID : V_MPEG4/ISO/AVC
Duration : 1h 27mn
Bit rate : 11.5 Mbps
Width : 1 920 pixels
Height : 1 080 pixels
Display aspect ratio : 16:9
Frame rate mode : Constant
Frame rate : 23.976 fps
Color space : YUV
Chroma subsampling : 4:2:0
Bit depth : 8 bits
Scan type : Progressive
Bits/(Pixel*Frame) : 0.232
Stream size : 7.08 GiB (88%)
Title : BDRip by Ash61
Writing library : x264 core 129 r2245 bc13772
Encoding settings : cabac=1 / ref=4 / deblock=1:-3:-3 / analyse=0x3:0x113 / me=umh / subme=9 / psy=1 / psy_rd=1.00:0.15 / mixed_ref=1 / me_range=32 / chroma_me=1 / trellis=2 / 8x8dct=1 / cqm=0 / deadzone=21,11 / fast_pskip=1 / chroma_qp_offset=-3 / threads=12 / lookahead_threads=2 / sliced_threads=0 / nr=0 / decimate=1 / interlaced=0 / bluray_compat=0 / constrained_intra=0 / bframes=7 / b_pyramid=2 / b_adapt=2 / b_bias=0 / direct=3 / weightb=1 / open_gop=0 / weightp=2 / keyint=250 / keyint_min=23 / scenecut=40 / intra_refresh=0 / rc_lookahead=60 / rc=crf / mbtree=1 / crf=17.0 / qcomp=0.70 / qpmin=0 / qpmax=69 / qpstep=4 / vbv_maxrate=40000 / vbv_bufsize=30000 / crf_max=0.0 / nal_hrd=none / frame-packing=4 / ip_ratio=1.40 / aq=1:0.70
Language : English
Default : Yes
Forced : No
Audio #1
ID : 2
Format : AC-3
Format/Info : Audio Coding 3
Mode extension : CM (complete main)
Format settings, Endianness : Big
Codec ID : A_AC3
Duration : 1h 27mn
Bit rate mode : Constant
Bit rate : 640 Kbps
Channel(s) : 6 channels
Channel positions : Front: L C R, Side: L R, LFE
Sampling rate : 48.0 KHz
Bit depth : 16 bits
Compression mode : Lossy
Stream size : 403 MiB (5%)
Title : Дубляж - BD 2D
Language : Russian
Default : Yes
Forced : No
Audio #2
ID : 3
Format : AC-3
Format/Info : Audio Coding 3
Mode extension : CM (complete main)
Format settings, Endianness : Big
Codec ID : A_AC3
Duration : 1h 27mn
Bit rate mode : Constant
Bit rate : 640 Kbps
Channel(s) : 6 channels
Channel positions : Front: L C R, Side: L R, LFE
Sampling rate : 48.0 KHz
Bit depth : 16 bits
Compression mode : Lossy
Stream size : 403 MiB (5%)
Title : Original - BD3D
Language : English
Default : No
Forced : No
Menu
00:00:00.000 : :1
00:08:56.828 : :2
00:15:57.790 : :3
00:24:07.112 : :4
00:32:17.936 : :5
00:40:12.869 : :6
00:46:45.636 : :7
00:52:22.097 : :8
01:00:20.033 : :9
01:05:05.652 : :10
01:12:49.657 : :11
01:19:01.820 : :12

Скриншоты

Для оценки 3д - Анимированные скрины






6.06.2013 - Релиз обновлён - русская дорога заменена на лицензию, добавлены субтитры.
Желающие, скачайте заново торрент-файл.

_________________
Показать сообщения:    

Текущее время: Сегодня 16:07

Часовой пояс: GMT



Вы не можете начинать темы
Вы не можете отвечать на сообщения
Вы не можете редактировать свои сообщения
Вы не можете удалять свои сообщения
Вы не можете голосовать в опросах
Вы не можете прикреплять файлы к сообщениям
Вы не можете скачивать файлы