Важное объявление!
У Нас Все раздачи мультитрекерные, при нуле пиров в релизах, можете смело вставать на закачку!
Статистика раздачи
Размер:     |    Зарегистрирован:     |    Скачан:     |   
Нет
 
     
 
 
Автор Сообщение

HUNTER

Стаж:
5 лет
Сообщений:
68018

Репутация: 101

[+] [-]
Вне форума [Профиль] [ЛС]

Out of My Mind by Spidey
Страна: USA
Тематика: Фокусы
Тип раздаваемого материала: Видеоурок
Год выпуска: 2013
Язык: Английский
Перевод: Отсутствует
Описание: Зритель тасует колоду,раздает а вы угадываете цвета карт и масть последней карты.
Качество: HDRip
Формат: MP4
Видео кодек: H.264
Аудио кодек: AAC
Видео: avc1 , 640x360(16:9) , 1996 kbps , 23 fps
Аудио: aac , 125 kbps , 48 kHz , 2 ch

Скриншоты

MediaInfo

Формат : MPEG-4
Профиль формата : Base Media / Version 2
Идентификатор кодека : mp42
Размер файла : 389 Мбайт
Продолжительность : 25 м.
Режим общего битрейта : Переменный
Общий поток : 2125 Кбит/сек
Дата кодирования : UTC 2013-04-16 03:52:23
Дата пометки : UTC 2013-04-16 03:54:11
©TIM : 00:00:00:00
©TSC : 24000
©TSZ : 1001
Видео
Идентификатор : 1
Формат : AVC
Формат/Информация : Advanced Video Codec
Профиль формата : High@L3.0
Параметр CABAC формата : Да
Параметр ReFrames формата : 3 кадра
Идентификатор кодека : avc1
Идентификатор кодека/Информация : Advanced Video Coding
Продолжительность : 25 м.
Продолжительность оригинала : 25 м.
Битрейт : 1996 Кбит/сек
Ширина : 640 пикселей
Высота : 360 пикселей
Соотношение сторон : 16:9
Режим частоты кадров : Переменный
Частота кадров : 23,976 кадра/сек
Минимальная частота кадров : 23,976 кадра/сек
Максимальная частота кадров : 24,000 кадра/сек
Стандарт вещания : NTSC
Цветовое пространство : YUV
Субдискретизация насыщенности : 4:2:0
Битовая глубина : 8 бит
Тип развёртки : Прогрессивная
Бит/(Пиксели*Кадры) : 0.361
Размер потока : 365 Мбайт (94%)
Размер потока оригинала : 365 Мбайт (94%)
Язык : English
Дата кодирования : UTC 2013-04-16 03:52:23
Дата пометки : UTC 2013-04-16 03:52:23
Основные цвета : BT.601 NTSC
Характеристики трансфера : BT.601
Коэффициенты матрицы : BT.601
mdhd_Duration : 1534033
Аудио
Идентификатор : 2
Формат : AAC
Формат/Информация : Advanced Audio Codec
Профиль формата : LC
Идентификатор кодека : 40
Продолжительность : 25 м.
Продолжительность оригинала : 25 м.
Вид битрейта : Переменный
Битрейт : 125 Кбит/сек
Максимальный битрейт : 209 Кбит/сек
Каналы : 2 канала
Расположение каналов : Front: L R
Частота : 48,0 КГц
Метод сжатия : С потерями
Размер потока : 22,9 Мбайт (6%)
Размер потока оригинала : 22,9 Мбайт (6%)
Язык : English
Дата кодирования : UTC 2013-04-16 03:52:23
Дата пометки : UTC 2013-04-16 03:52:23
mdhd_Duration : 1534080
C Наступающим всех!
ГОВОРИМ СПАСИБО!!

_________________
Показать сообщения:    

Текущее время: Сегодня 20:46

Часовой пояс: GMT



Вы не можете начинать темы
Вы не можете отвечать на сообщения
Вы не можете редактировать свои сообщения
Вы не можете удалять свои сообщения
Вы не можете голосовать в опросах
Вы не можете прикреплять файлы к сообщениям
Вы не можете скачивать файлы