Ивановский Торрент трекер
Яндекс.Погода
DL-List and Torrent activity
None
 
     
 
 

[Quote]
HUNTER

Отступники / The Opportunists- Страна: США
Жанр: драма, мелодрама, комедия, криминал
Год выпуска: 2000
Продолжительность: 01:26:32-Перевод: Профессиональный (двухголосый, закадровый) DDV
Субтитры: нет
Оригинальная аудиодорожка: английский
Режиссер: Майлс Коннелл /Myles Connell/
В ролях: Кристофер Уокен /Christopher Walken/, Питер Макдональд /Peter McDonald/, Хосе Зунига-Описание: Фильм от продюсера Джонатана Демма, режиссера "Молчания ягнят", "Филадельфии" и "Замужем за мафией".
Все, к чему стремится бывший преступник Виктор Келли - обеспечить свою семью. На родине, в Ирландии, Вика считают удачливым гангстером, несмотря на то, что в последний раз он отсидел восемь с половиной лет и, чтобы освободиться досрочно, был вынужден выдать полиции все похищенные деньги. Вик - хороший автомеханик, но его профессия не пользуется таким спросом, как искусство "медвежатника", щелкающего сейфы, точно орехи. Вик по уши в долгах, а приехавший из Ирландии кузен Майк, мечтающий "срубить по - легкому" целую кучу денег, уговаривает его пойти на последнее дело, в случае успеха которого их ждет крупный куш...-Доп. информация: Fullscreen версия ( из личной коллекции)
За информацию о переводе - Спасибо dayanat76
ДАННЫЙ ПЕРЕВОД НА ТРЕКЕРЕ ПОЯВЛЯЕТСЯ ВПЕРВЫЕ!
-Семпл-Качество: DVD5
Формат: DVD-Video
Видео: MPEG 2, 720x576 (PAL 4:3), 25.000 fps, VBR ~9 000 Kbps (0.514 bit/pixel)
Аудио 1: AC-3, 48.0 KHz, 6 ch, 384 Kbps, CBR (Russian)
Аудио 2: AC-3, 48.0 KHz, 2 ch, 448 Kbps, CBR (English)

DVDInfo

Title:
Size: 3.78 Gb ( 3 968 214 KBytes ) - DVD-5
Enabled regions: 1, 2, 3, 4, 5, 6, 8
VTS_01 :
Play Length: 01:26:14
Video: PAL 4:3 (720x576) VBR
Audio:
English (Dolby AC3, 2 ch)
Russian (Dolby AC3, 6 ch)

MediaInfo

Общее
Полное имя : D:\Отступники_The Opportunists_2000г_FS_DVD(R5)\VIDEO_TS\VTS_01_2.VOB
Формат : MPEG-PS
Размер файла : 1024 Мбайт
Продолжительность : 22 м. 45 с.
Режим общего битрейта : Переменный
Общий поток : 6289 Кбит/сек
Видео
Идентификатор : 224 (0xE0)
Формат : MPEG Video
Версия формата : Version 2
Профиль формата : Main@Main
Настройки формата : CustomMatrix / BVOP
Параметр BVOP формата : Да
Параметр матрицы формата : Выборочная
Параметр GOP формата : M=3, N=15
Структура изображения : Frame
Продолжительность : 22 м. 45 с.
Вид битрейта : Переменный
Битрейт : 5331 Кбит/сек
Максимальный битрейт : 9000 Кбит/сек
Ширина : 720 пикселей
Высота : 576 пикселей
Соотношение сторон : 4:3
Частота кадров : 25,000 кадров/сек
Стандарт вещания : PAL
Цветовое пространство : YUV
Субдискретизация насыщенности : 4:2:0
Битовая глубина : 8 бит
Тип развёртки : Чересстрочная
Порядок развёртки : Верхнее поле первое
Метод сжатия : С потерями
Бит/(Пиксели*Кадры) : 0.514
Временной код первого кадра : 01:23:29:09
Оригинал временного кода : Group of pictures header
GOP, открыто/закрыто : Закрыто
Размер потока : 868 Мбайт (85%)
Аудио #1
Идентификатор : 189 (0xBD)-128 (0x80)
Формат : AC-3
Формат/Информация : Audio Coding 3
Режим смешивания : DVD-Video
Продолжительность : 22 м. 45 с.
Вид битрейта : Постоянный
Битрейт : 448 Кбит/сек
Каналы : 2 канала
Расположение каналов : Front: L R
Частота : 48,0 КГц
Частота кадров : 31,250 кадров/сек (1536 SPF)
Битовая глубина : 16 бит
Метод сжатия : С потерями
Задержка видео : -224 мс.
Размер потока : 72,9 Мбайт (7%)
ServiceKind/String : Complete Main
Аудио #2
Идентификатор : 189 (0xBD)-129 (0x81)
Формат : AC-3
Формат/Информация : Audio Coding 3
Режим смешивания : DVD-Video
Продолжительность : 22 м. 45 с.
Вид битрейта : Постоянный
Битрейт : 384 Кбит/сек
Каналы : 6 каналов
Расположение каналов : Front: L C R, Side: L R, LFE
Частота : 48,0 КГц
Частота кадров : 31,250 кадров/сек (1536 SPF)
Битовая глубина : 16 бит
Метод сжатия : С потерями
Задержка видео : -224 мс.
Размер потока : 62,5 Мбайт (6%)
ServiceKind/String : Complete Main
Меню

Скриншоты меню

Скриншоты фильма



Display posts:    

Current time is: 24-Feb 23:16

All times are UTC ± 0


You cannot post new topics in this forum
You cannot reply to topics in this forum
You cannot edit your posts in this forum
You cannot delete your posts in this forum
You cannot vote in polls in this forum
You cannot attach files in this forum
You cannot download files in this forum

!ATTENTION!
The site does not give electronic versions of products, and is engaged only in a collecting and cataloguing of the references sent and published at a forum by our readers. If you are the legal owner of any submitted material and do not wish that the reference to it was in our catalogue, contact us and we shall immediately remove her. Files for an exchange on tracker are given by users of a site, and the administration does not bear the responsibility for their maintenance. The request to not fill in the files protected by copyrights, and also files of the illegal maintenance!