Ивановский Торрент трекер
Яндекс.Погода
 

[Цитировать]
HUNTER

Остров сокровищ
Страна: СССР
Жанр: мультфильм, приключения
Продолжительность: 00:49:32 + 01:01:45
Год выпуска: 1986-1988
Перевод: Не требуется
Русские субтитры: есть
Режиссёр: Давид Черкасский
Роли озвучивали: Владимир Заднепровский, Евгений Паперный, Армен Джигарханян, Юрий Яковлев, Валерий Бессараб, Борис Вознюк, Георгий Кишко, Валерий Чигляев, Виктор Андриенко
Описание: Современная версия старой истории о поиске сокровищ легендарного пирата Флинта. Славный мальчик Джимми Хокинс, отважный капитан Смоллетт, трусливый сквайр Трелони, коварные пираты и обаятельнейший доктор Ливси - эти герои не оставят вас равнодушными. Фильм снят в манере совмещенных игровых эпизодов с рисованной мультипликацией. Шхуна "Испаньола" бороздит морские просторы в поисках острова, на котором спрятаны легендарные сокровища капитана пиратов Флинта. На корабле зреет заговор. Разбойники во главе с одноногим Джоном Сильвером, кажется, близки к цели...

Семпл: http://multi-up.com/1211385
Качество: HDRip-AVC
Формат: MKV
Видео: 672x488 at 24.000 fps, MPEG-4 AVC, ~1470-1750 kbps
Аудио: 48 kHz, AC3, 2/0 (L,R) ch, ~224 kbps
Субтитры: русские, английские, немецкие

Подробные технические данные

avs [info]: 672x488p 1:1 @ 10000000/416667 fps (cfr)
x264 [info]: using SAR=1/1
x264 [info]: using cpu capabilities: MMX2 SSE2Fast SSSE3 Cache64
x264 [info]: profile High, level 4.1
x264 [info]: frame I:531 Avg QP:17.75 size: 60732
x264 [info]: frame P:17510 Avg QP:20.48 size: 17875
x264 [info]: frame B:53265 Avg QP:23.56 size: 5719
x264 [info]: consecutive B-frames: 2.8% 4.6% 10.3% 39.2% 18.3% 12.9% 5.1% 3.2% 1.7% 1.3% 0.7%
Format : Matroska
Format version : Version 2
File size : 700 MiB
Duration : 49mn 31s
Overall bit rate : 1 976 Kbps
Movie name : Карта капитана Флинта (1986)
Encoded date : UTC 2018-10-09 16:44:19
Writing application : mkvmerge v3.4.0 ('Rapunzel') built on May 15 2010 09:38:20
Writing library : libebml v0.8.0 + libmatroska v0.9.0
Video
ID : 1
Format : AVC
Format/Info : Advanced Video Codec
Format profile : High@L4.1
Format settings, CABAC : Yes
Format settings, ReFrames : 11 frames
Codec ID : V_MPEG4/ISO/AVC
Duration : 49mn 31s
Bit rate : 1 750 Kbps
Width : 672 pixels
Height : 488 pixels
Display aspect ratio : 1.377
Frame rate mode : Constant
Frame rate : 24.000 fps
Color space : YUV
Chroma subsampling : 4:2:0
Bit depth : 8 bits
Scan type : Progressive
Bits/(Pixel*Frame) : 0.222
Stream size : 607 MiB (87%)
Title : AVC @ 1750 kbps
Writing library : x264 core 155 r2901 7d0ff22
Encoding settings : cabac=1 / ref=11 / deblock=1:-1:-1 / analyse=0x3:0x133 / me=umh / subme=9 / psy=1 / psy_rd=0.85:0.00 / mixed_ref=1 / me_range=32 / chroma_me=1 / trellis=2 / 8x8dct=1 / cqm=0 / deadzone=21,11 / fast_pskip=0 / chroma_qp_offset=-2 / threads=3 / lookahead_threads=1 / sliced_threads=0 / nr=0 / decimate=1 / interlaced=0 / bluray_compat=0 / constrained_intra=0 / bframes=10 / b_pyramid=2 / b_adapt=2 / b_bias=0 / direct=3 / weightb=1 / open_gop=0 / weightp=2 / keyint=240 / keyint_min=24 / scenecut=40 / intra_refresh=0 / rc_lookahead=80 / rc=2pass / mbtree=1 / bitrate=1750 / ratetol=1.0 / qcomp=0.70 / qpmin=0 / qpmax=69 / qpstep=4 / cplxblur=20.0 / qblur=0.5 / ip_ratio=1.40 / aq=1:0.70
Language : Russian
Default : Yes
Forced : No
Audio
ID : 2
Format : AC-3
Format/Info : Audio Coding 3
Mode extension : CM (complete main)
Format settings, Endianness : Big
Codec ID : A_AC3
Duration : 49mn 31s
Bit rate mode : Constant
Bit rate : 224 Kbps
Channel(s) : 2 channels
Channel positions : Front: L R
Sampling rate : 48.0 KHz
Bit depth : 16 bits
Compression mode : Lossy
Stream size : 79.3 MiB (11%)
Title : AC3 2.0 @ 224 kbps
Language : Russian
Default : Yes
Forced : No
Text #1
ID : 3
Format : UTF-8
Codec ID : S_TEXT/UTF8
Codec ID/Info : UTF-8 Plain Text
Title : Русские
Language : Russian
Default : No
Forced : No
Text #2
ID : 4
Format : UTF-8
Codec ID : S_TEXT/UTF8
Codec ID/Info : UTF-8 Plain Text
Title : Английские
Language : English
Default : No
Forced : No
Text #3
ID : 5
Format : UTF-8
Codec ID : S_TEXT/UTF8
Codec ID/Info : UTF-8 Plain Text
Title : Немецкие
Language : German
Default : No
Forced : No--avs [info]: 672x488p 1:1 @ 10000000/416667 fps (cfr)
x264 [info]: using SAR=1/1
x264 [info]: using cpu capabilities: MMX2 SSE2Fast SSSE3 Cache64
x264 [info]: profile High, level 4.1
x264 [info]: frame I:639 Avg QP:19.47 size: 50922
x264 [info]: frame P:22147 Avg QP:22.53 size: 15296
x264 [info]: frame B:66154 Avg QP:24.97 size: 4612
x264 [info]: consecutive B-frames: 3.2% 3.5% 9.8% 39.7% 20.2% 13.0% 4.5% 2.7% 1.7% 0.9% 0.8%
Format : Matroska
Format version : Version 2
File size : 750 MiB
Duration : 1h 1mn
Overall bit rate : 1 697 Kbps
Movie name : Сокровища капитана Флинта (1988)
Encoded date : UTC 2018-10-10 08:51:15
Writing application : mkvmerge v3.4.0 ('Rapunzel') built on May 15 2010 09:38:20
Writing library : libebml v0.8.0 + libmatroska v0.9.0
Video
ID : 1
Format : AVC
Format/Info : Advanced Video Codec
Format profile : High@L4.1
Format settings, CABAC : Yes
Format settings, ReFrames : 11 frames
Codec ID : V_MPEG4/ISO/AVC
Duration : 1h 1mn
Bit rate : 1 471 Kbps
Width : 672 pixels
Height : 488 pixels
Display aspect ratio : 1.377
Frame rate mode : Constant
Frame rate : 24.000 fps
Color space : YUV
Chroma subsampling : 4:2:0
Bit depth : 8 bits
Scan type : Progressive
Bits/(Pixel*Frame) : 0.187
Stream size : 636 MiB (85%)
Title : AVC @ 1471 kbps
Writing library : x264 core 155 r2901 7d0ff22
Encoding settings : cabac=1 / ref=11 / deblock=1:-1:-1 / analyse=0x3:0x133 / me=umh / subme=9 / psy=1 / psy_rd=0.85:0.00 / mixed_ref=1 / me_range=32 / chroma_me=1 / trellis=2 / 8x8dct=1 / cqm=0 / deadzone=21,11 / fast_pskip=0 / chroma_qp_offset=-2 / threads=3 / lookahead_threads=1 / sliced_threads=0 / nr=0 / decimate=1 / interlaced=0 / bluray_compat=0 / constrained_intra=0 / bframes=10 / b_pyramid=2 / b_adapt=2 / b_bias=0 / direct=3 / weightb=1 / open_gop=0 / weightp=2 / keyint=240 / keyint_min=24 / scenecut=40 / intra_refresh=0 / rc_lookahead=80 / rc=2pass / mbtree=1 / bitrate=1471 / ratetol=1.0 / qcomp=0.70 / qpmin=0 / qpmax=69 / qpstep=4 / cplxblur=20.0 / qblur=0.5 / ip_ratio=1.40 / aq=1:0.70
Language : Russian
Default : Yes
Forced : No
Audio
ID : 2
Format : AC-3
Format/Info : Audio Coding 3
Mode extension : CM (complete main)
Format settings, Endianness : Big
Codec ID : A_AC3
Duration : 1h 1mn
Bit rate mode : Constant
Bit rate : 224 Kbps
Channel(s) : 2 channels
Channel positions : Front: L R
Sampling rate : 48.0 KHz
Bit depth : 16 bits
Compression mode : Lossy
Stream size : 99.0 MiB (13%)
Title : AC3 2.0 @ 224 kbps
Language : Russian
Default : Yes
Forced : No
Text #1
ID : 3
Format : UTF-8
Codec ID : S_TEXT/UTF8
Codec ID/Info : UTF-8 Plain Text
Title : Русские
Language : Russian
Default : No
Forced : No
Text #2
ID : 4
Format : UTF-8
Codec ID : S_TEXT/UTF8
Codec ID/Info : UTF-8 Plain Text
Title : Английские
Language : English
Default : No
Forced : No
Text #3
ID : 5
Format : UTF-8
Codec ID : S_TEXT/UTF8
Codec ID/Info : UTF-8 Plain Text
Title : Немецкие
Language : German
Default : No
Forced : No

Скриншоты



Показать сообщения:    

Текущее время: 14-Ноя 19:24

Часовой пояс: UTC ± 0


Вы не можете начинать темы
Вы не можете отвечать на сообщения
Вы не можете редактировать свои сообщения
Вы не можете удалять свои сообщения
Вы не можете голосовать в опросах
Вы не можете прикреплять файлы к сообщениям
Вы не можете скачивать файлы

!ВНИМАНИЕ!
Сайт не предоставляет электронные версии произведений, а занимается лишь коллекционированием и каталогизацией ссылок, присылаемых и публикуемых на форуме нашими читателями. Если вы являетесь правообладателем какого-либо представленного материала и не желаете, чтобы ссылка на него находилась в нашем каталоге, свяжитесь с нами, и мы незамедлительно удалим ее. Файлы для обмена на трекере предоставлены пользователями сайта, и администрация не несет ответственности за их содержание. Просьба не заливать файлы, защищенные авторскими правами, а также файлы нелегального содержания!