Ивановский Торрент трекер
Яндекс.Погода
 

[Цитировать]
HUNTER

The Best Of Rotterdam Records III - (ROTC04) - CD
Жанр: oldschool hardcore
Носитель: CD
Год издания: 1994
Издатель (лейбл): Rotterdam Records
Номер по каталогу: ROTC04
Аудиокодек: FLAC (*.flac)
Тип рипа: tracks+.cue
Битрейт аудио: lossless
Продолжительность: 1:12:44
Источник (релизер): CUSTODES
Наличие сканов в содержимом раздачи: нет
Треклист:
01. Neophyte - Back In My Brain
02. The Nightraver - So
03. DJ Paul & Lenny Dee - Anti-Procastination
04. E - Wax - Music Maestro
05. Too Fast For Mellow - In My House
06. Underground Nation - It's About Time
07. Sperminator - S-Fucking
08. Hardliners - Pikke Poeli Mellow
09. Spastic Egg - Stick Up
10. Bald Terror - Drummachine (D.J. Paul Remix)
11. Bodylotion - Ik Wil Hakke!
12. Rotterdam Remix Project - Loving You (X-Rated)
13. Short Circuit - Fuck Me
14. Rotterdam Termination Source - Poing (M. Steenbergen Remix)
15. Two Terrorists - Jurassick Park (DJ Paul Mix)
16. Sons Of Aliens - Heroes Of The Revolution

Содержание индексной карты (.CUE)

REM GENRE HardcoreREM DATE 1994REM DISCID E3110C10REM COMMENT "ExactAudioCopy v1.0b3"FILE "01 Various Artists - Neophyte - Back In My Brain.wav" WAVE TRACK 01 AUDIO INDEX 01 00:00:00FILE "02 Various Artists - The Nightraver - So.wav" WAVE TRACK 02 AUDIO INDEX 01 00:00:00FILE "03 Various Artists - DJ Paul & Lenny Dee - Anti-Procastination.wav" WAVE TRACK 03 AUDIO INDEX 01 00:00:00FILE "04 Various Artists - E-Wax - Music Maestro.wav" WAVE TRACK 04 AUDIO INDEX 01 00:00:00FILE "05 Various Artists - Too Fast For Mellow - In My House.wav" WAVE TRACK 05 AUDIO INDEX 01 00:00:00FILE "06 Various Artists - Underground Nation - It's About Time.wav" WAVE TRACK 06 AUDIO INDEX 01 00:00:00FILE "07 Various Artists - Sperminator - S-Fucking.wav" WAVE TRACK 07 AUDIO INDEX 01 00:00:00FILE "08 Various Artists - Hardliners - Pikke Poeli Mellow.wav" WAVE TRACK 08 AUDIO INDEX 01 00:00:00FILE "09 Various Artists - Spastic Egg - Stick Up.wav" WAVE TRACK 09 AUDIO INDEX 01 00:00:00FILE "10 Various Artists - Bald Terror - Drummachine (D.J. Paul Remix).wav" WAVE TRACK 10 AUDIO INDEX 01 00:00:00FILE "11 Various Artists - Bodylotion - Ik Wil Hakke!.wav" WAVE TRACK 11 AUDIO INDEX 01 00:00:00FILE "12 Various Artists - Rotterdam Remix Project - Loving You (X-Rated).wav" WAVE TRACK 12 AUDIO INDEX 01 00:00:00FILE "13 Various Artists - Short Circuit - Fuck Me.wav" WAVE TRACK 13 AUDIO INDEX 01 00:00:00FILE "14 Various Artists - Rotterdam Termination Source - Poing (M. Steenbergen Remix).wav" WAVE TRACK 14 AUDIO INDEX 01 00:00:00FILE "15 Various Artists - Two Terrorists - Jurassick Park (DJ Paul Mix).wav" WAVE TRACK 15 AUDIO INDEX 01 00:00:00FILE "16 Various Artists - Sons Of Aliens - Heroes Of The Revolution.wav" WAVE TRACK 16 AUDIO INDEX 01 00:00:00

Лог проверки качества

-----------------------
DON'T MODIFY THIS FILE
-----------------------
PERFORMER: auCDtect Task Manager, ver. 1.6.0 RC1 build 1.6.0.1Copyright (c) 2008-2010 y-soft. All rights reservedy-soft.org
ANALYZER: auCDtect: CD records authenticity detector, version 0.8.2Copyright (c) 2004 Oleg Berngardt. All rights reserved.Copyright (c) 2004 Alexander Djourik. All rights reserved.
FILE: 16-sons_of_aliens-heroes_of_the_revolution-custodes.flac Size: 48343855 Hash: 2E6EA980AFF24A6FD1F3214E4D84C30C Accuracy: -m0 Conclusion: CDDA 100% Signature: E654D4570C0A82C43585CE6DBA4A694EA56D8338FILE: 15-two_terrorists-jurassick_park_(dj_paul_mix)-custodes.flac Size: 37111037 Hash: E55E88AD1FC88101FF29337D3260E74D Accuracy: -m0 Conclusion: CDDA 99% Signature: 9266071B010D49940A54960727AF3740DEE9DD02FILE: 14-rotterdam_termination_source-poing_(m._steenbergen_remix)-custodes.flac Size: 26795226 Hash: AB18CEA3615C011F8098BFA68140316A Accuracy: -m0 Conclusion: CDDA 100% Signature: 0ED5D342EA3E412C48F87DDED0BA8C609298640EFILE: 13-short_circuit-fuck_me-custodes.flac Size: 36748339 Hash: 37CE8D1046236AC43D5F7C3C3C905547 Accuracy: -m0 Conclusion: CDDA 100% Signature: 31830B07C2D38613D7E5C01FB7042F82D5324600FILE: 12-rotterdam_remix_project-loving_you_(x-rated)-custodes.flac Size: 32591819 Hash: DAB7FBE4EB78BB7069A60E2E213FC0AD Accuracy: -m0 Conclusion: CDDA 100% Signature: 1F66130789BB589EFFD6A52840087334EEAA29D9FILE: 11-bodylotion-ik_wil_hakke-custodes.flac Size: 30204065 Hash: DA89817F0CF02E165885A3322BC7E63C Accuracy: -m0 Conclusion: CDDA 100% Signature: 4B783980514FDE9056BDCE8F3DCB46D5C51D9A68FILE: 10-bald_terror-drummachine_(d.j._paul_remix)-custodes.flac Size: 23204282 Hash: E990C52300DE1DC28989753CA40FE693 Accuracy: -m0 Conclusion: CDDA 100% Signature: 61CE27A81ADC87578162333E584B401B14B9AA1DFILE: 09-spastic_egg-stick_up-custodes.flac Size: 44611532 Hash: C0A6631519D766365EE68341860CAD9E Accuracy: -m0 Conclusion: CDDA 100% Signature: A044FEE56E87C96D5B8930017B2FD8FD9E7CAF84FILE: 08-hardliners-pikke_poeli_mellow-custodes.flac Size: 32723261 Hash: 471FCF97ED0B5A962BC8A0D93B13423A Accuracy: -m0 Conclusion: CDDA 100% Signature: 9608A94FE8F478CDF899544634D3A194FE5EF9B2FILE: 07-sperminator-s-fucking-custodes.flac Size: 30703861 Hash: 479A9FCB4B8206C2DD8F665626ADC77B Accuracy: -m0 Conclusion: CDDA 100% Signature: 05295E406D01964AF4610B4290FDB9B51E22E77EFILE: 06-underground_nation-its_about_time-custodes.flac Size: 23654908 Hash: ED74F692E170EFDFDDB1915530D6F036 Accuracy: -m0 Conclusion: CDDA 100% Signature: 80C17C21FC33B80D8A3A7E1A020B9C24AB6FEFB7FILE: 05-too_fast_for_mellow-in_my_house-custodes.flac Size: 40583308 Hash: 5CC44F4929F38AD423520A2272C367FF Accuracy: -m0 Conclusion: CDDA 99% Signature: 0F4E80A6BE05B8E71E265ED769EE43832936EB8DFILE: 04-e-wax-music_maestro-custodes.flac Size: 35983854 Hash: 82B716349C00C94DABBB5D7D4CBE4CFD Accuracy: -m0 Conclusion: CDDA 100% Signature: 774AB2BCFCCF81EE26A7FA0B0E0FA8318B4FF4FFFILE: 03-dj_paul_and_lenny_dee-anti-procastination-custodes.flac Size: 40392242 Hash: 330ECA6684154BCA8E33F8397103508B Accuracy: -m0 Conclusion: CDDA 100% Signature: 4F2266CFCF84771C3BCA520E981863707BD41489FILE: 02-the_nightraver-so-custodes.flac Size: 30546460 Hash: 1CEFA1CED2DF48CA1FC7D5D1F34E20F6 Accuracy: -m0 Conclusion: CDDA 100% Signature: 0E49E1A6C0C754D8E3445D7708F3C85FE0FC49DEFILE: 01-neophyte-back_in_my_brain-custodes.flac Size: 32401719 Hash: 5354D911ED663139B943E23F57AE97E3 Accuracy: -m0 Conclusion: CDDA 100% Signature: 894DA2D44683452AB038D0C6E203660F0E6BFF5E


Показать сообщения:    

Текущее время: 12-Дек 23:53

Часовой пояс: UTC ± 0


Вы не можете начинать темы
Вы не можете отвечать на сообщения
Вы не можете редактировать свои сообщения
Вы не можете удалять свои сообщения
Вы не можете голосовать в опросах
Вы не можете прикреплять файлы к сообщениям
Вы не можете скачивать файлы

!ВНИМАНИЕ!
Сайт не предоставляет электронные версии произведений, а занимается лишь коллекционированием и каталогизацией ссылок, присылаемых и публикуемых на форуме нашими читателями. Если вы являетесь правообладателем какого-либо представленного материала и не желаете, чтобы ссылка на него находилась в нашем каталоге, свяжитесь с нами, и мы незамедлительно удалим ее. Файлы для обмена на трекере предоставлены пользователями сайта, и администрация не несет ответственности за их содержание. Просьба не заливать файлы, защищенные авторскими правами, а также файлы нелегального содержания!