Ивановский Торрент трекер
Яндекс.Погода
DL-List and Torrent activity
Size:  3.31 GB   |    Registered:  1 year 1 month   |    Completed:  2 times
DL-List: None

Seeder not seen: 1 year 1 month

 
     
 
 
style="text-align: center"
 

[Quote]
HUNTER

Огненный ринг / Cowboy Up
-Страна: США
Жанр: драма, мелодрама, вестерн
Год выпуска: 2000
Продолжительность: 01:45:12-Перевод: Профессиональный (многоголосый, закадровый)
Субтитры: английские
Оригинальная аудиодорожка: английский-Режиссер: Карл Райнер / Carl Reiner-В ролях: Кифер Сазерленд, Маркус Томас, Дэрил Ханна, Бо Хопкинс, Мелинда Диллон, Молли Рингуолд, Рассел Минс, Энтони Лючеро, Пит Постлтуэйт-Описание:
Добро пожаловать в смертельно опасный мир буллрайдинга - самой эффектной и безумной разновидности родео, в которой смельчак, претендующий на славу, должен 8 секунд удержаться на спине бешено скачущего быка! Братья Эли и Хэнкс Брэкстоны - профи в этом виде спорта и горой стоят друг за друга как на арене, так и вне ее. Однако происходит непоправимое: Эли влюбляется в девушку брата, и никакие узы крови, кажется, не выдержат этого тяжкого испытания. Хуже всего, что это происходит в тот момент, когда без помощи Хэнкса Эли может просто погибнуть. Ведь он должен оседлать свирепого быка Запату – монстра, укротить которого не мог еще ни один человек…-Сэмпл: Скачать-Тип релиза: WEB-DL 720p
Контейнер: MKV-Видео: 1280x718 (16:9); 3 932 Kbps; 23.976 fps; 0.189 bpp
Аудио 1: Russian; AC3; 48.0 KHz; 2ch; 192 Kbps
Аудио 2: English; AAC; 48.0 KHz; 2ch; 160 Kbps

MediaInfo

Format : Matroska
Format version : Version 4 / Version 2
File size : 3.31 GiB
Duration : 1 h 45 min
Overall bit rate : 4 509 kb/s
Encoded date : UTC 2015-11-19 08:01:33
Writing application : mkvmerge v8.3.0 ('Over the Horizon') 64bit
Writing library : libebml v1.3.1 + libmatroska v1.4.2
Attachments : poster.jpg
Video
ID : 1
Format : AVC
Format/Info : Advanced Video Codec
Format profile : High@L3.1
Format settings : 2 Ref Frames
Format settings, CABAC : No
Format settings, ReFrames : 2 frames
Codec ID : V_MPEG4/ISO/AVC
Duration : 1 h 45 min
Bit rate : 3 932 kb/s
Width : 1 280 pixels
Height : 718 pixels
Display aspect ratio : 16:9
Frame rate mode : Constant
Frame rate : 23.976 (23976/1000) FPS
Color space : YUV
Chroma subsampling : 4:2:0
Bit depth : 8 bits
Scan type : Progressive
Bits/(Pixel*Frame) : 0.178
Stream size : 2.89 GiB (87%)
Language : English
Default : Yes
Forced : No
Color range : Limited
Color primaries : BT.709
Transfer characteristics : BT.709
Matrix coefficients : BT.709
Audio #1
ID : 2
Format : AC-3
Format/Info : Audio Coding 3
Codec ID : A_AC3
Duration : 1 h 45 min
Bit rate mode : Constant
Bit rate : 192 kb/s
Channel(s) : 2 channels
Channel positions : Front: L R
Sampling rate : 48.0 kHz
Frame rate : 31.250 FPS (1536 SPF)
Bit depth : 16 bits
Compression mode : Lossy
Stream size : 145 MiB (4%)
Title : MVO
Language : Russian
Service kind : Complete Main
Default : Yes
Forced : No
Audio #2
ID : 3
Format : AC-3
Format/Info : Audio Coding 3
Codec ID : A_AC3
Duration : 1 h 45 min
Bit rate mode : Constant
Bit rate : 384 kb/s
Channel(s) : 6 channels
Channel positions : Front: L C R, Side: L R, LFE
Sampling rate : 48.0 kHz
Frame rate : 31.250 FPS (1536 SPF)
Bit depth : 16 bits
Compression mode : Lossy
Stream size : 289 MiB (9%)
Language : English
Service kind : Complete Main
Default : No
Forced : No
Text
ID : 4
Format : UTF-8
Codec ID : S_TEXT/UTF8
Codec ID/Info : UTF-8 Plain Text
Duration : 1 h 39 min
Bit rate : 65 b/s
Count of elements : 1072
Stream size : 47.5 KiB (0%)
Language : English
Default : No
Forced : No
Menu
00:00:00.000 : en:Start
00:05:59.000 : en:End Of The Road?
00:07:18.000 : en:Six Months later
00:19:50.000 : en:Ely Rides Again
00:21:14.000 : en:Viva Zapata
00:24:17.000 : en:"You've Done Me In."
00:25:19.000 : en:A Bit Of Fun
00:26:17.000 : en:Ely The Liar
00:31:44.000 : en:Celia Jones
00:33:33.000 : en:Back In The Saddle
00:34:36.000 : en:Mario's At 8
00:36:31.000 : en:Massage Stuff
00:38:28.000 : en:Celia,Goldfinger & Dad
00:41:51.000 : en:The Winner Circle
00:45:40.000 : en:Prodigal Son Returns
00:47:42.000 : en:Connie & Dr.Fremont
00:49:40.000 : en:July 4th Fireworks
00:52:12.000 : en:Warning Sighn
01:02:12.000 : en:The Jones Girls
01:04:26.000 : en:Ely's Coming
01:06:53.000 : en:88 Points
01:12:10.000 : en:Hung Up On The Past
01:14:25.000 : en:Tnn Interview
01:18:45.000 : en:"Lighten Your Load."
01:22:43.000 : en:Reid Baxton
01:30:16.000 : en:Cowboy Up
01:33:32.000 : en:Cowboy Down
01:39:38.000 : en:What Hank Would've Done

Скриншоты

[iv-torrents.ru].t82550.torrent
Torrent: Registered [ 2018-08-05 17:06 ] · 8E14F768B39A2FF09539B081F7876AE318757551

Download .torrent

Download

17 KB

Status: checked
Completed: 2 times
Size: 3.31 GB
terms.php


Display posts:    

Current time is: 16-Sep 09:05

All times are UTC ± 0


You cannot post new topics in this forum
You cannot reply to topics in this forum
You cannot edit your posts in this forum
You cannot delete your posts in this forum
You cannot vote in polls in this forum
You cannot attach files in this forum
You can download files in this forum

!ATTENTION!
The site does not give electronic versions of products, and is engaged only in a collecting and cataloguing of the references sent and published at a forum by our readers. If you are the legal owner of any submitted material and do not wish that the reference to it was in our catalogue, contact us and we shall immediately remove her. Files for an exchange on tracker are given by users of a site, and the administration does not bear the responsibility for their maintenance. The request to not fill in the files protected by copyrights, and also files of the illegal maintenance!