Ивановский Торрент трекер
Яндекс.Погода
DL-List and Torrent activity
Size:  4.06 GB   |    Registered:  6 years 6 months   |    Completed:  340 times
DL-List: None

Seeder not seen: 6 years 3 months

 
     
 
 
 

[Quote]
димитри37

Один в один. Выпуск 10
Год выпуска: 2013
Страна: Россия
Жанр: ТВ-Шоу
Продолжительность: 02:30:38
Перевод: Не требуется
Описание: "Один в один" - невероятно зрелищное шоу и одновременно серьезнейший профессиональный вызов для его участников: артист, облик которого необходимо принять, может отличаться от участника не только возрастом, но и полом. Для зрителей же это станет настоящим праздником музыки и телевизионным развлечением самого высокого качества. Кстати, в выступления вовлечены не только участники, но также и члены жюри, ведущие и приглашенные гости! «Один в один» - российская версия популярного международного формата Your Face Sounds Familiar (Endemol), который за два года стал настоящим телевизионным феноменом в мире. Каждую неделю 10 участников проекта полностью перевоплощаются в звезд музыки, перенимая оригинальный стиль артиста от внешности и манеры двигаться до тембра голоса. Преобразиться участникам помогают специалисты по сценографии, актерскому мастерству, пародии, а также специально разработанный для шоу грим. Жюри оценивает выступления в конце каждого выпуска и выставляет баллы от 2 до 12 (по системе, принятой на конкурсе песни «Евровидение»). Также каждый участник может присудить 5 баллов за наиболее понравившийся ему номер. В финал выходят 5 лучших из лучших и именно среди них определится победитель сезона.
Участники: Алексей Кортнев, Сати Казанова, Сергей Пенкин, Анита Цой, Тимур Родригез, Анастасия Стоцкая, Юлия Савичева, Ева Польна, Алексей Чумаков и Евгений Кунгуров.
Ведущие: Нонна Гришаева и Александр Олешко.
Жюри: Геннадий Хазанов, Александр Ревва, Любовь Казарновская и Людмила Артемьева.
Качество: HDTVRip 720p
Контейнер: MKV
Видеокодек: H.264
Аудиокодек: MP2
Видео: 1280x720 (16:9), 25.000 fps, 3 556 Kbps, 0.154 bit/pixel
Аудио: MPEG Audio, 48000Hz, 2ch, 224 Кбит/сек

Треклист

01. Юлия Савичева - «Невеста» (Глюк'Oza)
02. Алексей Кортнев - «Попурри» (Андрей Миронов)
03. Тимур Родригез - «Попурри» (Jamiroquai)
04. Евгений Кунгуров - «Эй, Ухнем!» (Фёдор Шаляпин)
05. Ева Польна - «Ночной Гость» (Михаил Шуфутинский)
06. Алексей Чумаков - «Далеко-Далёко» (Авраам Руссо)
07. Сергей Пенкин - « Sorry Seems To Be The Hardest Word» (Elton John)
08. Сати Казанова - «Кабы Не Было Зимы» (Валентина Толкунова)
09. Анастасия Стоцкая - «Без Бою» (Святослав Вакарчук)
10. Анита Цой - «Objection (Tango)» (Shakira)

MediaInfo

General
Unique ID : 174377008005780763475888998411775247480 (0x832FCA4629A9F1589B59CA919D2C0478)
Complete name : Один в один!.e10.2013.O.HDTVRip.720p.mkv
Format : Matroska
Format version : Version 4 / Version 2
File size : 4.06 GiB
Duration : 2h 30mn
Overall bit rate : 3 857 Kbps
Encoded date : UTC 2013-05-13 14:23:48
Writing application : mkvmerge v6.2.0 ('Promised Land') built on Apr 28 2013 12:22:01
Writing library : libebml v1.3.0 + libmatroska v1.4.0
Video
ID : 1
Format : AVC
Format/Info : Advanced Video Codec
Format profile : High@L4.0
Format settings, CABAC : Yes
Format settings, ReFrames : 8 frames
Codec ID : V_MPEG4/ISO/AVC
Duration : 2h 30mn
Bit rate : 3 556 Kbps
Width : 1 280 pixels
Height : 720 pixels
Display aspect ratio : 16:9
Frame rate mode : Constant
Frame rate : 25.000 fps
Color space : YUV
Chroma subsampling : 4:2:0
Bit depth : 8 bits
Scan type : Progressive
Bits/(Pixel*Frame) : 0.154
Stream size : 3.74 GiB (92%)
Writing library : x264 core 132 r2310 76a5c3a
Encoding settings : cabac=1 / ref=8 / deblock=1:-2:-1 / analyse=0x3:0x113 / me=umh / subme=9 / psy=1 / psy_rd=1.00:0.10 / mixed_ref=1 / me_range=24 / chroma_me=1 / trellis=2 / 8x8dct=1 / cqm=0 / deadzone=21,11 / fast_pskip=1 / chroma_qp_offset=-3 / threads=9 / lookahead_threads=1 / sliced_threads=0 / nr=0 / decimate=1 / interlaced=0 / bluray_compat=0 / constrained_intra=0 / bframes=8 / b_pyramid=2 / b_adapt=2 / b_bias=0 / direct=1 / weightb=1 / open_gop=0 / weightp=2 / keyint=250 / keyint_min=25 / scenecut=40 / intra_refresh=0 / rc=crf / mbtree=0 / crf=22.0 / qcomp=0.70 / qpmin=0 / qpmax=69 / qpstep=4 / ip_ratio=1.40 / pb_ratio=1.30 / aq=1:0.90
Language : English
Default : Yes
Forced : No
Color primaries : BT.709
Transfer characteristics : BT.709
Matrix coefficients : BT.709
Audio
ID : 2
Format : MPEG Audio
Format version : Version 1
Format profile : Layer 2
Codec ID : A_MPEG/L2
Codec ID/Hint : MP2
Duration : 2h 30mn
Bit rate mode : Constant
Bit rate : 224 Kbps
Channel(s) : 2 channels
Sampling rate : 48.0 KHz
Compression mode : Lossy
Stream size : 241 MiB (6%)
Language : Russian
Default : Yes
Forced : No

Скриншоты

-
[iv-torrents.ru].t3616.torrent
Torrent: Registered [ 2013-05-18 05:27 ] · B16885020A2946B1BA007A55CF641AA3A15A8843

Download .torrent

Download

11 KB

Status: checked
Completed: 340 times
Size: 4.06 GB
terms.php
Похожие темы


Display posts:    

Current time is: 18-Nov 14:31

All times are UTC ± 0


You cannot post new topics in this forum
You cannot reply to topics in this forum
You cannot edit your posts in this forum
You cannot delete your posts in this forum
You cannot vote in polls in this forum
You cannot attach files in this forum
You can download files in this forum

!ATTENTION!
The site does not give electronic versions of products, and is engaged only in a collecting and cataloguing of the references sent and published at a forum by our readers. If you are the legal owner of any submitted material and do not wish that the reference to it was in our catalogue, contact us and we shall immediately remove her. Files for an exchange on tracker are given by users of a site, and the administration does not bear the responsibility for their maintenance. The request to not fill in the files protected by copyrights, and also files of the illegal maintenance!