Ивановский Торрент трекер
Яндекс.Погода
DL-List and Torrent activity
None
 
     
 
 

[Quote]
HUNTER

Обучение Русскому Бильярду-
Год выпуска: 2004
Страна: Россия
Сайт производителя: Отсутствует
Тематика: Спорт
Тип материала: Обучающее видео-Продолжительность: 00:43:45
Автор: В. Симонич-Язык: Русский - Профессиональный (одноголосый)
Субтитры: Отсутствуют-Описание: 2 часть обучения, в основном пока расказы о бильярде.-Качество: TeleSynch
Формат: AVI
Видео кодек: XviD
Аудио кодек: MPEG Audio
Видео: 512x384 (1.33:1) 25 fps 1003 kbps avg 0.20 bit/pixel
Аудио: 44.100 kHz MPEG Layer 3 2 ch 128.00 kbps avg-

MediaInfo

General
Complete name : E:\Обучение\Simonych2.avi
Format : AVI
Format/Info : Audio Video Interleave
File size : 358 MiB
Duration : 43mn 45s
Overall bit rate : 1 144 Kbps
Writing application : MEncoder dev-CVS-051014-22:10-3.4.4
Writing library : MPlayer
Video
ID : 0
Format : MPEG-4 Visual
Format profile : Simple@L1
Format settings, BVOP : No
Format settings, QPel : No
Format settings, GMC : No warppoints
Format settings, Matrix : Default (H.263)
Codec ID : XVID
Codec ID/Hint : XviD
Duration : 43mn 45s
Bit rate : 1 004 Kbps
Width : 512 pixels
Height : 384 pixels
Display aspect ratio : 4:3
Frame rate : 25.000 fps
Color space : YUV
Chroma subsampling : 4:2:0
Bit depth : 8 bits
Scan type : Progressive
Compression mode : Lossy
Bits/(Pixel*Frame) : 0.204
Stream size : 314 MiB (88%)
Writing library : Lavc50.0.0
Audio
ID : 1
Format : MPEG Audio
Format version : Version 1
Format profile : Layer 3
Mode : Dual mono
Codec ID : 55
Codec ID/Hint : MP3
Duration : 43mn 45s
Bit rate mode : Constant
Bit rate : 128 Kbps
Channel(s) : 2 channels
Sampling rate : 44.1 KHz
Compression mode : Lossy
Stream size : 40.1 MiB (11%)
Alignment : Aligned on interleaves
Interleave, duration : 26 ms (0.65 video frame)
Interleave, preload duration : 809 ms
- -


Display posts:    

Current time is: 23-May 22:51

All times are UTC ± 0


You cannot post new topics in this forum
You cannot reply to topics in this forum
You cannot edit your posts in this forum
You cannot delete your posts in this forum
You cannot vote in polls in this forum
You cannot attach files in this forum
You cannot download files in this forum

!ATTENTION!
The site does not give electronic versions of products, and is engaged only in a collecting and cataloguing of the references sent and published at a forum by our readers. If you are the legal owner of any submitted material and do not wish that the reference to it was in our catalogue, contact us and we shall immediately remove her. Files for an exchange on tracker are given by users of a site, and the administration does not bear the responsibility for their maintenance. The request to not fill in the files protected by copyrights, and also files of the illegal maintenance!