Ивановский Торрент трекер
Яндекс.Погода
DL-List and Torrent activity
Size:  6.34 GB   |    Registered:  1 year 3 months   |    Completed:  2 times
DL-List: None

Seeder not seen: Never

 
     
 
 
 

[Quote]
HUNTER

Ноябрьские преступники / November Criminals
Страна: США
Студия: Black Bicycle Entertainment
Жанр: Драма, криминал, детектив
Год выпуска: 2017
Продолжительность: 01:25:54
Перевод: Профессиональный (многоголосый закадровый) Blu-Ray EUR
Субтитры: Русские, Английские
Оригинальная аудиодорожка: английский
Режиссер: Саша Джерваси / Sacha Gervasi
В ролях: Энсел Элгорт, Хлоя Грейс Морец, Кэтрин Кинер, Дэвид Стрэтэйрн, Кори Хардрикт, Терри Кинни, Дэн Флаэрти, Тесса Альбертсон, Виктор Уильямс, Элли Маршалл
Описание: Подросток по имени Эддисон сильно переживает из-за недавней смерти матери. Через полгода после этого происшествия судьба подкидывает ему очередное испытание — неизвестный убивает в кафе его друга Кевина. Полиция списывает всё на бандитские разборки. Эддисон понимает, что дело Кевина никак не продвигается и никто не найдёт его убийцу. Тогда он, заручившись поддержкой своей девушки Фиби, начинает собственное расследование.
[box]Скачать сэмпл[/box]
Тип релиза: BDRip 720p
Контейнер: MKV
Видео: MPEG-4 AVC, 9277 Кбит/с, 1280x720, 23,976 fps
Аудио 1: Rus, AC3, 640 kb/s (6 ch), 48 kHz
Аудио 2: Eng, AC3, 640 kb/s (6 ch), 48 kHz
Формат субтитров: softsub (SRT)

Дополнительно

x264 [info]: frame I:886 Avg QP:11.98 size: 170438
x264 [info]: frame P:25269 Avg QP:14.06 size: 83080
x264 [info]: frame B:97421 Avg QP:14.98 size: 38253
x264 [info]: consecutive B-frames: 1.5% 2.2% 4.0% 28.9% 12.7% 24.0% 9.0% 14.7% 1.6% 0.7% 0.5%
-
[box]NOTES:
* Applied F3kdb ConditionalFilter and zones for some scenes visible banding and blocking.
* Source was separated into semi-dark, dark, red, scenes along with various crf values on zones.
* Greetings: Hellboy, hungdaita, NoWayOut, wolgone, and all Members of TayTO and HDBits[/box]

Сравнения

Debanding | Deblocking
Source |S.Filtered | TayTO | Mteam






MediaInfo

Общее
Уникальный идентификатор : 89452679544349128086589377146360522439 (0x434BF59C2824667985521A97202566C7)
Полное имя : November.Criminals.2017.BDRIp.720p.Secrets.mkv
Формат : Matroska
Версия формата : Version 4 / Version 2
Размер файла : 6,34 Гбайт
Продолжительность : 1 ч. 25 м.
Общий поток : 10,6 Мбит/сек
Название фильма : November Criminals (2017) - Release for rutracker.org by Secrets
Дата кодирования : UTC 2018-01-15 00:26:21
Программа кодирования : mkvmerge v19.0.0 ('Brave Captain') 64-bit
Библиотека кодирования : libebml v1.3.5 + libmatroska v1.4.8
Видео
Идентификатор : 1
Формат : AVC
Формат/Информация : Advanced Video Codec
Профиль формата : High@L4.1
Параметр CABAC формата : Да
Параметр ReFrames формата : 9 кадров
Идентификатор кодека : V_MPEG4/ISO/AVC
Продолжительность : 1 ч. 25 м.
Битрейт : 9277 Кбит/сек
Ширина : 1280 пикселей
Высота : 720 пикселей
Соотношение сторон : 16:9
Режим частоты кадров : Постоянный
Частота кадров : 23,976 (24000/1001) кадра/сек
Цветовое пространство : YUV
Субдискретизация насыщенности : 4:2:0
Битовая глубина : 8 бит
Тип развёртки : Прогрессивная
Бит/(Пиксели*Кадры) : 0.420
Размер потока : 5,57 Гбайт (88%)
Заголовок : November Criminals (2017) - Release for rutracker.org by Secrets
Библиотека кодирования : x264 core 142 r2431+42 c69a006 tMod [8-bit@4:2:0 X86_64]
Настройки программы : cabac=1 / ref=9 / deblock=1:-3:-3 / analyse=0x3:0x113 / me=umh / subme=11 / psy=1 / fade_compensate=0.00 / psy_rd=1.05:0.00 / mixed_ref=1 / me_range=32 / chroma_me=1 / trellis=2 / 8x8dct=1 / cqm=0 / deadzone=21,11 / fast_pskip=0 / chroma_qp_offset=-2 / threads=9 / lookahead_threads=2 / sliced_threads=0 / nr=0 / decimate=0 / interlaced=0 / bluray_compat=0 / constrained_intra=0 / fgo=0 / bframes=10 / b_pyramid=2 / b_adapt=2 / b_bias=0 / direct=3 / weightb=1 / open_gop=0 / weightp=2 / keyint=250 / keyint_min=23 / scenecut=40 / intra_refresh=0 / rc_lookahead=60 / rc=crf / mbtree=0 / crf=15.4000 / qcomp=0.60 / qpmin=0:0:0 / qpmax=69:69:69 / qpstep=4 / vbv_maxrate=30000 / vbv_bufsize=38000 / crf_max=0.0 / nal_hrd=none / filler=0 / ip_ratio=1.30 / pb_ratio=1.20 / aq=3:0.75 / aq-sensitivity=10.00 / aq-factor=1.00:1.00:1.00 / aq2=0 / aq3=0 / zones=53,586,crf=12.3/6186,6248,crf=13.4/6378,6438,crf=12.5/6463,6901,crf=13.4/8717,8790,crf=14.5/8919,9038,crf=14.5/9359,9999,crf=14.5/9593,9691,crf=114.5/10406,10446,crf=13.4/10460,10476,crf=13.4/15291,15530,crf=13.4/15604,15690,crf=13.4/15728,16114,crf=13.4/16848,17246,crf=13.4/17633,18304,crf=13.4/18315,18378,crf=12/18379,18602,crf=12.5/18670,18722,crf=12.5/18778,18901,crf=12.5/19008,19083,crf=12.5/19182,19292,crf=13.4/21405,21465,crf=14.5/24752,24884,crf=13.4/27236,27275,crf=13.4/27330,27441,crf=13.4/27855,27910,crf=13.4/27966,28008,crf=13.4/28059,28090,crf=13.4/28343,28457,crf=13.4/32394,32545,crf=13.4/34297,34299,crf=13.4/36919,36996,crf=13.4/42584,42614,crf=13.4/42644,42828,crf=13.4/43063,43315,crf=13.4/44102,44136,crf=13.4/44237,44290,crf=13.4/44793,44852,crf=13.4/44922,44972,crf=13.4/45020,45133,crf=13.4/45673,45722,crf=13.4/45833,45998,crf=13.4/47485,47758,crf=13.4/47848,48229,crf=13.4/55960,56294,crf=13.4/56402,56458,crf=13.4/56460,56793,crf=13.4/56832,57062,crf=13.4/57103,57173,crf=13.4/57203,57362,crf=13.4/57405,57567,crf=13.4/63426,63546,crf=13.4/63620,63694,crf=13.4/63781,63846,crf=13.4/63915,63948,crf=13.4/63991,64165,crf=13.4/64612,64647,crf=13.4/66039,70740,crf=13.4/71871,71942,crf=13.4/72003,72127,crf=13.4/75342,75435,crf=13.4/77291,77310,crf=13.4/77768,78099,crf=13.4/78137,78267,crf=13.4/78305,78388,crf=13.4/78943,79040,crf=13.4/85515,85952,crf=13.4/90840,90847,crf=13.4/91073,93073,crf=13.4/93477,94242,crf=13.4/94480,100121,crf=12.5/115565,123575,crf=18.9
Язык : English
Default : Да
Forced : Нет
Цветовой диапазон : Limited
Основные цвета : BT.709
Характеристики трансфера : BT.709
Коэффициенты матрицы : BT.709
Аудио #1
Идентификатор : 2
Формат : AC-3
Формат/Информация : Audio Coding 3
Расширение режима : CM (complete main)
Параметр Endianness формата : Big
Идентификатор кодека : A_AC3
Продолжительность : 1 ч. 25 м.
Вид битрейта : Постоянный
Битрейт : 640 Кбит/сек
Каналы : 6 каналов
Расположение каналов : Front: L C R, Side: L R, LFE
Частота : 48,0 КГц
Частота кадров : 31,250 кадров/сек (1536 spf)
Метод сжатия : С потерями
Размер потока : 393 Мбайт (6%)
Заголовок : Blu-Ray EUR
Язык : Russian
Default : Да
Forced : Нет
Аудио #2
Идентификатор : 3
Формат : AC-3
Формат/Информация : Audio Coding 3
Расширение режима : CM (complete main)
Параметр Endianness формата : Big
Идентификатор кодека : A_AC3
Продолжительность : 1 ч. 25 м.
Вид битрейта : Постоянный
Битрейт : 640 Кбит/сек
Каналы : 6 каналов
Расположение каналов : Front: L C R, Side: L R, LFE
Частота : 48,0 КГц
Частота кадров : 31,250 кадров/сек (1536 spf)
Метод сжатия : С потерями
Размер потока : 393 Мбайт (6%)
Язык : English
Default : Нет
Forced : Нет
Текст #1
Идентификатор : 4
Формат : UTF-8
Идентификатор кодека : S_TEXT/UTF8
Идентификатор кодека/Информация : UTF-8 Plain Text
Продолжительность : 1 ч. 24 м.
Битрейт : 90 бит/сек
Count of elements : 1221
Размер потока : 56,2 Кбайт (0%)
Язык : Russian
Default : Нет
Forced : Нет
Текст #2
Идентификатор : 5
Формат : UTF-8
Идентификатор кодека : S_TEXT/UTF8
Идентификатор кодека/Информация : UTF-8 Plain Text
Продолжительность : 1 ч. 15 м.
Битрейт : 71 бит/сек
Count of elements : 1203
Размер потока : 39,7 Кбайт (0%)
Язык : English
Default : Нет
Forced : Нет
Текст #3
Идентификатор : 6
Формат : UTF-8
Идентификатор кодека : S_TEXT/UTF8
Идентификатор кодека/Информация : UTF-8 Plain Text
Продолжительность : 1 ч. 19 м.
Битрейт : 77 бит/сек
Count of elements : 1409
Размер потока : 45,2 Кбайт (0%)
Заголовок : SDH
Язык : English
Default : Нет
Forced : Нет
Меню
00:00:00.000 : en:Chapter 1
00:08:00.522 : en:Chapter 2
00:12:34.837 : en:Chapter 3
00:16:58.392 : en:Chapter 4
00:20:41.740 : en:Chapter 5
00:23:47.885 : en:Chapter 6
00:28:06.560 : en:Chapter 7
00:33:31.593 : en:Chapter 8
00:41:05.505 : en:Chapter 9
00:46:20.987 : en:Chapter 10
00:50:08.339 : en:Chapter 11
00:56:56.580 : en:Chapter 12
00:59:55.717 : en:Chapter 13
01:05:51.197 : en:Chapter 14
01:09:35.963 : en:Chapter 15
01:13:45.171 : en:Chapter 16

Скриншоты

[iv-torrents.ru].t82575.torrent
Torrent: Registered [ 2018-08-05 17:06 ] · 27FCD23783E6FBF58672F5250B817CAE715B54B6

Download .torrent

Download

16 KB

Status: checked
Completed: 2 times
Size: 6.34 GB
terms.php
Похожие темы


Display posts:    

Current time is: 15-Nov 10:13

All times are UTC ± 0


You cannot post new topics in this forum
You cannot reply to topics in this forum
You cannot edit your posts in this forum
You cannot delete your posts in this forum
You cannot vote in polls in this forum
You cannot attach files in this forum
You can download files in this forum

!ATTENTION!
The site does not give electronic versions of products, and is engaged only in a collecting and cataloguing of the references sent and published at a forum by our readers. If you are the legal owner of any submitted material and do not wish that the reference to it was in our catalogue, contact us and we shall immediately remove her. Files for an exchange on tracker are given by users of a site, and the administration does not bear the responsibility for their maintenance. The request to not fill in the files protected by copyrights, and also files of the illegal maintenance!