Важное объявление!
У Нас Все раздачи мультитрекерные, при нуле пиров в релизах, можете смело вставать на закачку!
 
Автор Сообщение

HUNTER

Стаж:
4 года 4 месяца
Сообщений:
56749

Репутация: 101

[+] [-]
Вне форума [Профиль] [ЛС]

Noize MC - LIVEнь-Год выпуска: 2012
Страна: Россия
Жанр: Rap/Hip-Hop
Продолжительность: 0:48:51
Описание: выступление Ивана Алексеева в рамках презентации "Нового Альбома", транслировавшееся по телевидению в программе "ДОЖДЬ"
-Tracklist
1. Бассейн
2. Я Глуп
3. Вселенная Бесконечна
4. Интервью
5. ШлакваШаклассика!
6. Друг Подруги Тёлки Брата
7. Yes Future!
-Качество: DVB
Формат: MPEG-PS
Видео кодек: MPEG Video
Аудио кодек: MPEG Audio
Видео: 720x576, 25 fps, 3191 kbps
Аудио: 192 kbps, 48 kHz, 2 channels

Screenshots

MI

Общее
Полное имя : D:\Дискографии\Noize MC\Noize MC - LIVEнь (2012).mpg
Формат : MPEG-PS
Размер файла : 1,18 Гбайт
Продолжительность : 48 м.
Общий поток : 3452 Кбит/сек
Видео
Идентификатор : 224 (0xE0)
Формат : MPEG Video
Версия формата : Version 2
Профиль формата : Main@Main
Параметр BVOP формата : Да
Параметр матрицы формата : Выборочная
Продолжительность : 48 м.
Вид битрейта : Переменный
Битрейт : 3191 Кбит/сек
Максимальный битрейт : 15,0 Мбит/сек
Ширина : 720 пикселей
Высота : 576 пикселей
Соотношение сторон : 16:9
Частота кадров : 25,000 кадров/сек
Стандарт вещания : PAL
Цветовое пространство : YUV
Субдискретизация насыщенности : 4:2:0
Битовая глубина : 8 бит
Метод сжатия : С потерями
Бит/(Пиксели*Кадры) : 0.308
Размер потока : 1,09 Гбайт (92%)
Аудио
Идентификатор : 192 (0xC0)
Формат : MPEG Audio
Версия формата : Version 1
Профиль формата : Layer 2
Продолжительность : 48 м.
Вид битрейта : Постоянный
Битрейт : 192 Кбит/сек
Каналы : 2 канала
Частота : 48,0 КГц
Метод сжатия : С потерями
Размер потока : 67,1 Мбайт (6%)
-
Group of music принимает заявки в стол заказов

_________________
Показать сообщения:    

Текущее время: Сегодня 01:57

Часовой пояс: GMT



Вы не можете начинать темы
Вы не можете отвечать на сообщения
Вы не можете редактировать свои сообщения
Вы не можете удалять свои сообщения
Вы не можете голосовать в опросах
Вы не можете прикреплять файлы к сообщениям
Вы не можете скачивать файлы