Ивановский Торрент трекер
Яндекс.Погода
DL-List and Torrent activity
None
 
     
 
style="text-align: center"
 

[Quote]
HUNTER

Ночные твари / Ночной полёт / Nightflyers
Страна: США
Жанр: фантастика, хоррор
Год выпуска: 1987
Продолжительность: 01:29:15
Перевод: Профессиональный (двухголосый закадровый) Инис
Перевод 2: Авторский (одноголосый закадровый) Алексеев
Cубтитры: нет
Оригинальная аудиодорожка: английский
Режиссер: Роберт Коллектор / Robert Collector
В ролях: Катрин Мэри Стюарт, Майкл Прейд, Джон Стэндинг, Лиза Блаунт, Гленн Уитроу, Джеймс Эйври, Хелен Уди, Аннабел Брукс, Майкл Де Барр
Описание: 21 век. Космическая крепость “Авалон”. Профессор О’Брэнин в течение 12 лет занимался работами, связанными с поиском сигналов от внеземных цивилизаций, и вот наконец-то ему повезло. Правда, так называемый инопланетный сигнал выглядел просто одним из шумов, но чиканутого учёного подобное остановить уже не могло. Он тотчас решил снарядить экспедицию, но ему в итоге не удалось добиться достойного финансирования своего проекта. Поэтому ему пришлось вместе со своим экипажем, в который вошли специалисты в различных сферах (включая верную ученицу – Миранду), пересесть не на исследовательский космолёт, а в судно иного назначения. Впрочем, внутри оно оказалось довольно милым: почти домашняя, уютная обстановка плюс капитан корабля, который не любит показываться на глазах, а предпочитает представать перед ними в виде голограммы. Исследователи вылетели по направлению сигнала, но так как на корабле не было специализированной аппаратуры – пришлось пользоваться услугами мужика-экстрасенса. Через него они, однако, вышли вовсе не на космических “чужих”, а на компьютерную структуру самого корабля, который был сооружён некой бабой. В очень смутном объяснении удалось понять лишь то, что она забеременела от кого-то, а затем каким-то образом умудрилась подключить крошечного сына к компьютерной программе, в результате чего тот стал общим целым с электронной начинкой корабля и рос в нём, превратившись в длинноволосого мачо. Но его мать тоже отдалась на волю технике и стала головным мозгом всего управления космолётом, через который стала следить, чтобы сынок был всегда поблизости он неё. Но вот когда сын, которого звать Ройдом, проникся взаимной симпатией с Мирандой и захотел уйти из под контроля компьютера, его мать не на шутку взбесилась. А на что способна взбешённая женщина – объяснять, по-моему, не стоит…Благодаря популярности сериала Чужие, во второй половине 80-х годов стало появляться множество его клонов, которые с разной степенью успеха штурмовали высоты научно-фантастического горизонта. Данный космический хоррор снимался по роману Джорджа Мартина, который был написан за 5 лет до появления культового Чужого. По оценкам зрителей, автор этого фильма угробил хорошую идею, заложенную в произведении. Романа я не читал, но вот с тем, что картина получилась откровенно провальной, я соглашусь. Именно из-за таких работ многие современные кинолюбители считают, что ужасы 80-х были дрянными поделками. Судя по некоторым декорациям, бюджет у фильма был, но Роберт Коллектор стал своего рода коллектором-коллекционером плохого тона, задавая в сюжет хаотичность и невнятность. Спецэффекты в ряде мест хороши (лазерная установка разрезает череп человека надвое, а чуть позже этот труп начинает носиться за экипажем корабля), но их мало, а большую часть времени меня занимали мысли несколько иного плана – быстрее бы эта галиматья закончилась.
Доп. информация: Русская звуковая дорожка взята сэтой раздачи http://rutracker.org/forum/viewtopic.php?t=4531285 автору большое спасибо.
Удалено слайдшоу.
При пересборе двд были использованы программы:
PgcDemux - разделение компонентов диска на файлы
Muxman - мультиплексирование и авторинг DVD
VobBlanker - реавторинг DVD

Скрин завершения проекта

Сэмпл: http://sendfile.su/1101028
Тип релиза: DVD5 (Custom)
Контейнер: DVD-Video
Видео: NTSC 4:3 (720x480) VBR
Аудио: Russian (Dolby AC3, 192 Кбит/сек, 2 ch)
Аудио 2: Russian (Dolby AC3, 192 Кбит/сек, 2 ch)
Аудио 3: English (Dolby AC3, 448 Кбит/сек, 2 ch)

DVDInfo

Size: 4.44 Gb ( 4 652 872 KBytes ) - DVD-9
Enabled regions: 1, 2, 3, 4, 5, 6, 7, 8
VTS_01 :
Play Length: 01:29:15
Video: NTSC 4:3 (720x480) VBR
Audio:
Russian (Dolby AC3, 2 ch)
Russian (Dolby AC3, 2 ch)
English (Dolby AC3, 2 ch)
VTS_02 :
Play Length: 00:02:43
Video: NTSC 4:3 (352x480) VBR
Audio:
English (LinearPCM, 2 ch)
Menu Video:
NTSC 4:3 (720x480) VBR
Menu Subtitles:
Not specified
Menu Language Unit :
Root Menu

MediaInfo

Общее
Полное имя : M:\Nightflyers_1987\VIDEO_TS\VTS_01_1.VOB
Формат : MPEG-PS
Размер файла : 1024 Мбайт
Продолжительность : 20 м.
Режим общего битрейта : Переменный
Общий поток : 6958 Кбит/сек
Видео
Идентификатор : 224 (0xE0)
Формат : MPEG Video
Версия формата : Version 2
Профиль формата : Main@Main
Параметр BVOP формата : Да
Параметр матрицы формата : Выборочная
Продолжительность : 20 м.
Вид битрейта : Переменный
Битрейт : 5987 Кбит/сек
Максимальный битрейт : 8000 Кбит/сек
Ширина : 720 пикселей
Высота : 480 пикселей
Соотношение сторон : 4:3
Частота кадров : 23,976 кадра/сек
Стандарт вещания : NTSC
Цветовое пространство : YUV
Субдискретизация насыщенности : 4:2:0
Битовая глубина : 8 бит
Тип развёртки : Прогрессивная
Порядок развёртки : 2:3 Pulldown
Метод сжатия : С потерями
Бит/(Пиксели*Кадры) : 0.723
Размер потока : 881 Мбайт (86%)
Основные цвета : BT.601 NTSC
Характеристики трансфера : BT.601
Коэффициенты матрицы : BT.601
Аудио #1
Идентификатор : 189 (0xBD)-128 (0x80)
Формат : AC-3
Формат/Информация : Audio Coding 3
Расширение режима : CM (complete main)
Параметр Endianness формата : Big
Режим смешивания : DVD-Video
Продолжительность : 20 м.
Вид битрейта : Постоянный
Битрейт : 192 Кбит/сек
Каналы : 2 канала
Расположение каналов : Front: L R
Частота : 48,0 КГц
Битовая глубина : 16 бит
Метод сжатия : С потерями
Размер потока : 28,3 Мбайт (3%)
Аудио #2
Идентификатор : 189 (0xBD)-129 (0x81)
Формат : AC-3
Формат/Информация : Audio Coding 3
Расширение режима : CM (complete main)
Параметр Endianness формата : Big
Режим смешивания : DVD-Video
Продолжительность : 20 м.
Вид битрейта : Постоянный
Битрейт : 192 Кбит/сек
Каналы : 2 канала
Расположение каналов : Front: L R
Частота : 48,0 КГц
Битовая глубина : 16 бит
Метод сжатия : С потерями
Размер потока : 28,3 Мбайт (3%)
Аудио #3
Идентификатор : 189 (0xBD)-130 (0x82)
Формат : AC-3
Формат/Информация : Audio Coding 3
Расширение режима : CM (complete main)
Параметр Endianness формата : Big
Режим смешивания : DVD-Video
Продолжительность : 20 м.
Вид битрейта : Постоянный
Битрейт : 448 Кбит/сек
Каналы : 2 канала
Расположение каналов : Front: L R
Частота : 48,0 КГц
Битовая глубина : 16 бит
Метод сжатия : С потерями
Размер потока : 65,9 Мбайт (6%)
Меню

Постеры и обложки

Скриншоты меню



Display posts:    

Current time is: 22-Aug 11:34

All times are UTC ± 0


You cannot post new topics in this forum
You cannot reply to topics in this forum
You cannot edit your posts in this forum
You cannot delete your posts in this forum
You cannot vote in polls in this forum
You cannot attach files in this forum
You cannot download files in this forum

!ATTENTION!
The site does not give electronic versions of products, and is engaged only in a collecting and cataloguing of the references sent and published at a forum by our readers. If you are the legal owner of any submitted material and do not wish that the reference to it was in our catalogue, contact us and we shall immediately remove her. Files for an exchange on tracker are given by users of a site, and the administration does not bear the responsibility for their maintenance. The request to not fill in the files protected by copyrights, and also files of the illegal maintenance!