Ивановский Торрент трекер
Яндекс.Погода
DL-List and Torrent activity
Size:  6.07 GB   |    Registered:  4 years 2 months   |    Completed:  0 times
DL-List: None

Seeder not seen: Never

 
     
 
 
 

[Quote]
HUNTER

Ночная красавица / The Forbidden Girl
Страна: Германия
Студия: European Nation Pictures
Жанр: Триллер, детектив
Год выпуска: 2013
Продолжительность: 01:41:12
Перевод: Профессиональный (двухголосый закадровый)
Cубтитры: нет
Оригинальная аудиодорожка: нет
Режиссер: Тилль Хастрайтер / Till Hastreiter
В ролях: Питер Гадиот, Ютта-Мерле Бёрнсен, Клаус Тангэ, Жанетт Хайн, Марк Бишофф, Роджер Теб, Джесси Инман, Манон Кайл, Йорг Винсент Малотки, Тадэуш Мейлингер
Описание: Молодой человек по имени Тоби при странных и трагических обстоятельствах теряет свою возлюбленную Эсму. Он уверен, что причиной ее смерти стало появление некоего дьявольского существа. Произошедшее так его шокирует, что он попадает в психиатрическую клинику. Позже, когда Тоби выходит оттуда, ему предлагают работу в загородном поместье у одной старой женщины. Сама женщина очень слаба, поэтому всеми ее делами заведует дворецкий. Эта парочка выглядит несколько пугающей, но условия работы выгодные и Тоби соглашается. Как потом выясняется, в доме есть еще один жилец — молодая девушка, страдающая редкой болезнью — аллергией на дневной свет. Она заперта в специальной комнате. Что-то в ней напоминает ему об Эсме. Но кто же на самом деле эти люди к которым он попал?
Сэмпл: http://multi-up.com/1039511
Тип релиза: HDTV 1080i
Контейнер: TS
Видео: AVC, 1920x1080, (16:9), 25 fps, 7.7 Mbps
Аудио: Русский, AC3, 48 kHz, 6 ch, 448 kbps

MediaInfo

General
ID : 1 (0x1)
Complete name : D:\Ночная красавица_2013_HDTV 1080i_RU.ts
Format : MPEG-TS
File size : 6.07 GiB
Duration : 1h 41mn
Overall bit rate mode : Variable
Overall bit rate : 8 603 Kbps
Video
ID : 321 (0x141)
Menu ID : 12101 (0x2F45)
Format : AVC
Format/Info : Advanced Video Codec
Format profile : High@L4.0
Format settings, CABAC : Yes
Format settings, ReFrames : 4 frames
Codec ID : 27
Duration : 1h 41mn
Bit rate : 7 725 Kbps
Width : 1 920 pixels
Height : 1 080 pixels
Display aspect ratio : 16:9
Frame rate : 25.000 fps
Standard : Component
Color space : YUV
Chroma subsampling : 4:2:0
Bit depth : 8 bits
Scan type : Interlaced
Scan order : Top Field First
Bits/(Pixel*Frame) : 0.149
Stream size : 5.45 GiB (90%)
Color primaries : BT.709
Transfer characteristics : BT.709
Matrix coefficients : BT.709
Color range : Limited
Audio
ID : 401 (0x191)
Menu ID : 12101 (0x2F45)
Format : AC-3
Format/Info : Audio Coding 3
Mode extension : CM (complete main)
Format settings, Endianness : Big
Codec ID : 6
Duration : 1h 41mn
Bit rate mode : Constant
Bit rate : 448 Kbps
Channel(s) : 6 channels
Channel positions : Front: L C R, Side: L R, LFE
Sampling rate : 48.0 KHz
Bit depth : 16 bits
Compression mode : Lossy
Stream size : 324 MiB (5%)
Language : Russian

Скриншоты

[iv-torrents.ru].t42294.torrent
Torrent: Registered [ 2015-03-22 14:56 ] · 896058BB433B2FBC02986A07C3F6B6167150138C

Download .torrent

Download

31 KB

Status: checked
Completed: 0 times
Size: 6.07 GB
terms.php
Похожие темы


Quick Reply

Name:

               
       
     
Heads necessary to send messages to enable JavaScript
Display posts:    

Current time is: 24-May 13:24

All times are UTC ± 0


You can post new topics in this forum
You can reply to topics in this forum
You cannot edit your posts in this forum
You cannot delete your posts in this forum
You cannot vote in polls in this forum
You cannot attach files in this forum
You can download files in this forum

!ATTENTION!
The site does not give electronic versions of products, and is engaged only in a collecting and cataloguing of the references sent and published at a forum by our readers. If you are the legal owner of any submitted material and do not wish that the reference to it was in our catalogue, contact us and we shall immediately remove her. Files for an exchange on tracker are given by users of a site, and the administration does not bear the responsibility for their maintenance. The request to not fill in the files protected by copyrights, and also files of the illegal maintenance!