Ивановский Торрент трекер
Яндекс.Погода
 

[Цитировать]
palych74

Nirvana: Live at the Paramount
Страна: USA
Жанр: Grunge
Продолжительность: 01:16:26
Год выпуска: 2011 г.
Описание: Ранее неизданный концерт NIRVANA, "Live At The Paramount", транслировался 23 сентября в 11:00 по ET на VH1 вместе с часовым шоу, которое состялось одновременно на VH1 Classic и Palladia. Это трансляция приурочена к 20-летию выхода альбома "Nevermind" и концерта, который состоялся на Хэллоуин 1991 года, во время которого группа исполнила несколько треков с "Nevermind", а также не альбомные "Sliver", "Aneurysm" и кавер-версию THE VASELINES' "Jesus Doesn't Want Me For a Sunbeam".
На DVD и Blu-Ray релиз концерта "Nirvana: Live At The Paramount" состоится 27 сентября одновременно с выходом юбилейного издания альбома "Nevermind".-Источник: скачано из сети [KYR]
Качество: HDTVRip
Контейнер: MKV
Видео: AVC, 1280x720(16:9), 2296Kbps, 25,000 fps
Аудио: MP2, 48000Hz, 384Kbps, 2ch-

Треклист

Скриншоты

MediaInfo

Общее
Уникальный идентификатор : 239603061955384541669961770858290324259 (0xB441DF0590CC06AFBEB3FD1A1C2BA323)
Полное имя : C:\Documents and Settings\Администратор\Мои документы\Torrent\Nirvana.Live.At.The.Paramount.720p.HDTV.x264.mkv
Формат : Matroska
Размер файла : 1,46 Гбайт
Продолжительность : 1 ч. 16 м.
Общий поток : 2734 Кбит/сек
Дата кодирования : UTC 2011-09-24 01:14:13
Программа кодирования : mkvmerge v4.9.1 ('Ich will') built on Jul 11 2011 23:53:15
Библиотека кодирования : libebml v1.2.1 + libmatroska v1.1.1
Видео
Идентификатор : 1
Формат : AVC
Формат/Информация : Advanced Video Codec
Профиль формата : High@L4.1
Параметр CABAC формата : Да
Параметр ReFrames формата : 5 кадры
Режим смешивания : Header stripping
Идентификатор кодека : V_MPEG4/ISO/AVC
Продолжительность : 1 ч. 16 м.
Битрейт : 2296 Кбит/сек
Ширина : 1280 пикс.
Высота : 720 пикс.
Соотношение сторон : 16:9
Частота кадров : 25,000 кадр/сек
Цветовое пространство : YUV
Подвыборка цветности : 4:2:0
Битовая глубина : 8 бит
Тип развёртки : Прогрессивная
Бит/(Пиксели*Кадры) : 0.100
Размер потока : 1,23 Гбайт (84%)
Библиотека кодирования : x264 core 118 r2085 8a62835
Настройки программы : cabac=1 / ref=5 / deblock=1:0:0 / analyse=0x3:0x113 / me=umh / subme=8 / psy=1 / psy_rd=1.00:0.00 / mixed_ref=1 / me_range=16 / chroma_me=1 / trellis=1 / 8x8dct=1 / cqm=0 / deadzone=21,11 / fast_pskip=1 / chroma_qp_offset=-2 / threads=6 / sliced_threads=0 / nr=0 / decimate=1 / interlaced=0 / bluray_compat=0 / constrained_intra=0 / bframes=3 / b_pyramid=2 / b_adapt=2 / b_bias=0 / direct=3 / weightb=1 / open_gop=0 / weightp=2 / keyint=250 / keyint_min=25 / scenecut=40 / intra_refresh=0 / rc_lookahead=50 / rc=crf / mbtree=1 / crf=23.0 / qcomp=0.60 / qpmin=0 / qpmax=69 / qpstep=4 / ip_ratio=1.40 / aq=1:1.00
Язык : English
Аудио
Идентификатор : 2
Формат : MPEG Audio
Версия формата : Version 1
Профиль формата : Layer 2
Режим смешивания : Header stripping
Идентификатор кодека : A_MPEG/L2
Идентификатор кодека/Подсказка : MP2
Продолжительность : 1 ч. 16 м.
Вид битрейта : Постоянный
Битрейт : 384 Кбит/сек
Канал(ы) : 2 канала(ов)
Частота : 48,0 КГц
Метод сжатия : С потерями
Размер потока : 210 Мбайт (14%)


Показать сообщения:    

Текущее время: 18-Дек 01:32

Часовой пояс: UTC ± 0


Вы не можете начинать темы
Вы не можете отвечать на сообщения
Вы не можете редактировать свои сообщения
Вы не можете удалять свои сообщения
Вы не можете голосовать в опросах
Вы не можете прикреплять файлы к сообщениям
Вы не можете скачивать файлы

!ВНИМАНИЕ!
Сайт не предоставляет электронные версии произведений, а занимается лишь коллекционированием и каталогизацией ссылок, присылаемых и публикуемых на форуме нашими читателями. Если вы являетесь правообладателем какого-либо представленного материала и не желаете, чтобы ссылка на него находилась в нашем каталоге, свяжитесь с нами, и мы незамедлительно удалим ее. Файлы для обмена на трекере предоставлены пользователями сайта, и администрация не несет ответственности за их содержание. Просьба не заливать файлы, защищенные авторскими правами, а также файлы нелегального содержания!