Важное объявление!
У Нас Все раздачи мультитрекерные, при нуле пиров в релизах, можете смело вставать на закачку!
 
Автор Сообщение

HUNTER

Стаж:
4 года 10 месяцев
Сообщений:
65531

Репутация: 101

[+] [-]
Вне форума [Профиль] [ЛС]


NikitA - Live at Bolero 22.09.2012
-

  • Год производства: 2012

  • Страна: UA

  • Жанр: Pop

  • Продолжительность: 00:43:50-
  • Описание: 22 Сентября состоялся концерт украинской группы "NikitA" в харьковском клубе "Bolero"-
  • Качество видео: HDCamRip

  • Формат видео: mp4

  • Видео кодек: H264

  • Аудио кодек: AAC

  • Видео: MPEG4 Video (H264), 1920x1080, 25fps, 27948kbps, 0.539 Bits/Pixel*Frame

  • Аудио: AAC, 48000Hz, stereo, 192kbps
-

Треклист

1. Искусаю - 03:22
2. Бессонница - 02:45
3. Авокадо - 03:17
4. Королева - 03:40
5. Солдат - 03:35
6. Давай, стреляй! - 03:05
7. Полёт над землей - 03:13
8. Буря в пустыне - 04:20
9. 20:12 - 03:29
10. Эротически болен - 03:42
11. Руки у руля - 03:31
12. Веревки - 03:28

Bonus - Clips

1. 20-12
2. Bite
3. Верёвки
4. Искусаю
5. Королева
6. Авакадо
-

Скриншоты


-

Скринлист

-

Mediainfo

Код: copyText_writeLink('this.parentNode.parentNode.nextSibling.nextSibling');
General
Complete name : D:\Торенты\NikitA - LIVE @ Bolero 22.09.2012 [Харьков]\NIKITA_HQ.mp4
Format : MPEG-4
Format profile : Base Media / Version 2
Codec ID : mp42
File size : 8.62 GiB
Duration : 43mn 50s
Overall bit rate : 28.1 Mbps
Encoded date : UTC 2012-09-24 01:34:13
Tagged date : UTC 2012-09-24 01:34:13
Video
ID : 2
Format : AVC
Format/Info : Advanced Video Codec
Format profile : [url=mailto:Baseline@L4.1]Baseline@L4.1[/url]
Format settings, CABAC : No
Format settings, ReFrames : 2 frames
Format settings, GOP : M=1, N=24
Codec ID : avc1
Codec ID/Info : Advanced Video Coding
Duration : 43mn 50s
Bit rate mode : Variable
Bit rate : 27.9 Mbps
Width : 1 920 pixels
Height : 1 080 pixels
Display aspect ratio : 16:9
Frame rate mode : Constant
Frame rate : 25.000 fps
Standard : NTSC
Color space : YUV
Chroma subsampling : 4:2:0
Bit depth : 8 bits
Scan type : Progressive
Bits/(Pixel*Frame) : 0.539
Stream size : 8.56 GiB (99%)
Language : English
Encoded date : UTC 2012-09-24 01:34:13
Tagged date : UTC 2012-09-24 01:34:13
Audio
ID : 1
Format : AAC
Format/Info : Advanced Audio Codec
Format profile : LC
Codec ID : 40
Duration : 43mn 50s
Bit rate mode : Constant
Bit rate : 192 Kbps
Channel(s) : 2 channels
Channel positions : Front: L R
Sampling rate : 48.0 KHz
Compression mode : Lossy
Stream size : 60.2 MiB (1%)
Language : English
Encoded date : UTC 2012-09-24 01:34:13
Tagged date : UTC 2012-09-24 01:34:13

_________________
Показать сообщения:    

Текущее время: Сегодня 02:10

Часовой пояс: GMT



Вы не можете начинать темы
Вы не можете отвечать на сообщения
Вы не можете редактировать свои сообщения
Вы не можете удалять свои сообщения
Вы не можете голосовать в опросах
Вы не можете прикреплять файлы к сообщениям
Вы не можете скачивать файлы