Важное объявление!
У Нас Все раздачи мультитрекерные, при нуле пиров в релизах, можете смело вставать на закачку!
 
Автор Сообщение

HUNTER

Стаж:
4 года 4 месяца
Сообщений:
56822

Репутация: 101

[+] [-]
Вне форума [Профиль] [ЛС]

2015 Mello Yello Drag Racing Series. New England Nationals

Вид спорта: Автогонки / Драг-рейсинг
Дата: 14 июня, 2015
Место проведения: New England Dragway and Motorsports Park, Epping, NH
Трансляция: Viasat Sport (ESPN2)
Язык комментария: Русский (Денис Захаров), Aнглийский
Доп. информация: Удалены медийные паузы
Автор релиза: mex_mangust

Качество: HDWeb-Rip 1080i (OTT-сервис)
Формат: MKV
Видео: H.264 / 1920x1080 / 25 fps / 8626 kbps
Аудио: MP2 / 48 mhz / Stereo / 192 kbps

Продолжительность

02:15:43

Скриншоты

Media Info
General
Unique ID : 175424180970286571551437284408544321072 (0x83F977E32A7ED3B595C806551235DE30)
Complete name : G:\torrents\RUTRACKER.ORG-NHRA-20150614-New-England-Nationals-RU-EN-1080i-mex.mkv
Format : Matroska
Format version : Version 4 / Version 2
File size : 8.72 GiB
Duration : 2h 15mn
Overall bit rate : 9 193 Kbps
Encoded date : UTC 2015-06-15 10:21:31
Writing application : mkvmerge v7.9.0 ('Birds') 64bit
Writing library : libebml v1.3.1 + libmatroska v1.4.2
_STATISTICS_WRITING_APP : mkvmerge v7.9.0 ('Birds') 64bit
_STATISTICS_WRITING_DATE_UTC : 2015-06-15 10:21:31
_STATISTICS_TAGS : BPS DURATION NUMBER_OF_FRAMES NUMBER_OF_BYTES
DURATION : 02:15:43.608000000
NUMBER_OF_FRAMES : 339223
NUMBER_OF_BYTES : 195392448
Video
ID : 1
Format : AVC
Format/Info : Advanced Video Codec
Format profile : Main@L4
Format settings, CABAC : Yes
Format settings, ReFrames : 4 frames
Codec ID : V_MPEG4/ISO/AVC
Duration : 2h 15mn
Bit rate : 8 626 Kbps
Width : 1 920 pixels
Height : 1 080 pixels
Display aspect ratio : 16:9
Frame rate mode : Constant
Frame rate : 25.000 fps
Standard : Component
Color space : YUV
Chroma subsampling : 4:2:0
Bit depth : 8 bits
Scan type : Interlaced
Scan order : Top Field First
Bits/(Pixel*Frame) : 0.166
Stream size : 8.18 GiB (94%)
Title : mm
Default : Yes
Forced : No
Color range : Limited
Color primaries : BT.709
Transfer characteristics : BT.709
Matrix coefficients : BT.709
Audio #1
ID : 2
Format : MPEG Audio
Format version : Version 1
Format profile : Layer 2
Codec ID : A_MPEG/L2
Codec ID/Hint : MP2
Duration : 2h 15mn
Bit rate mode : Constant
Bit rate : 192 Kbps
Channel(s) : 2 channels
Sampling rate : 48.0 KHz
Compression mode : Lossy
Delay relative to video : 40ms
Stream size : 186 MiB (2%)
Title : Viasat Sport
Language : Russian
Default : Yes
Forced : No
Audio #2
ID : 3
Format : MPEG Audio
Format version : Version 1
Format profile : Layer 2
Codec ID : A_MPEG/L2
Codec ID/Hint : MP2
Duration : 2h 15mn
Bit rate mode : Constant
Bit rate : 192 Kbps
Channel(s) : 2 channels
Sampling rate : 48.0 KHz
Compression mode : Lossy
Delay relative to video : 40ms
Stream size : 186 MiB (2%)
Title : ESPN
Language : English
Default : No
Forced : No

_________________
Показать сообщения:    

Текущее время: Сегодня 04:37

Часовой пояс: GMT



Вы не можете начинать темы
Вы не можете отвечать на сообщения
Вы не можете редактировать свои сообщения
Вы не можете удалять свои сообщения
Вы не можете голосовать в опросах
Вы не можете прикреплять файлы к сообщениям
Вы не можете скачивать файлы