Важное объявление!
У Нас Все раздачи мультитрекерные, при нуле пиров в релизах, можете смело вставать на закачку!
 
Автор Сообщение

HUNTER

Стаж:
4 года 4 месяца
Сообщений:
56720

Репутация: 101

[+] [-]
Вне форума [Профиль] [ЛС]

NG. Осушение океана: Вторая мировая война / Drain the Ocean WWII
Дата/Год выпуска: 2016
Страна: США, National Geographic
Жанр: Документальный, флот, война, история
Продолжительность: 00:44:00
Перевод: Профессиональный (дублированный)
Телеканал: National Geographic HD немецкого ТВ
Описание: Что лежит на дне океанов и морей? Вторая мировая война оставила большое количество кораблей и подводных лодок, которые покоятся на морском дне. Если бы океаны были осушены, какие тайны раскрыло бы каждое судно? С помощью новых 3D реконструкций мы увидим: линкор «Аризона» затонувший в Перл-Харборе; гибель которого потрясла Америку; нацистский суперлинкор «Бисмарк» и его останки на глубине около пяти километров; торговые суда тайно торпедированные подводными лодками возле туристических пляжей США; затонувшие в День-Д (D-Day) плавающие танки союзников. Документальный фильм покажет эти и другие корабли, такими, какими мы их никогда не видели. «Осушение океана» обнажает истину.
Доп. информация: Авторство релиза - alf62

качество: HDTVRip
формат: AVI
Видео: 720x400 (1.80:1), 25 fps, XviD build 73 ~1799 kbps avg, 0.25 bit/pixel
Аудио: 48 kHz, AC3 Dolby Digital, 2/0 (L,R) ch, ~192.00 kbps avg

MediaInfo

Осушение.океана.Вторая.мировая.война.2016.XviD.HDTVRip.alf62.aviФормат : AVIФормат/Информация : Audio Video InterleaveРазмер файла : 630 МбайтПродолжительность : 44 м.Общий поток : 2001 Кбит/секПрограмма кодирования : VirtualDubModRus 1.5.10.2 (build 2542/release)Библиотека кодирования : VirtualDubMod build 2542/release
ВидеоИдентификатор : 0Формат : MPEG-4 VisualПрофиль формата : Advanced Simple@L5Параметр BVOP формата : 2Параметр QPel формата : НетПараметр GMC формата : Без точки переходаПараметр матрицы формата : Default (MPEG)Идентификатор кодека : XVIDИдентификатор кодека/Подсказка : XviDПродолжительность : 44 м.Битрейт : 1800 Кбит/секШирина : 720 пикселейВысота : 400 пикселейСоотношение сторон : 16:9Частота кадров : 25,000 кадров/секЦветовое пространство : YUVСубдискретизация насыщенности : 4:2:0Битовая глубина : 8 битТип развёртки : ПрогрессивнаяМетод сжатия : С потерямиБит/(Пиксели*Кадры) : 0.250Размер потока : 566 Мбайт (90%)Библиотека кодирования : XviD 73
АудиоИдентификатор : 1Формат : AC-3Формат/Информация : Audio Coding 3Расширение режима : CM (complete main)Параметр Endianness формата : BigИдентификатор кодека : 2000Продолжительность : 43 м.Вид битрейта : ПостоянныйБитрейт : 192 Кбит/секКаналы : 2 каналаРасположение каналов : Front: L RЧастота : 48,0 КГцБитовая глубина : 16 битМетод сжатия : С потерямиЗадержка видео : 160 мс.Размер потока : 60,4 Мбайт (10%)Выравнивание : Разделение по промежуткамПродолжительность промежутка : 40 мс. (1,00 видеокадр)Время предзагрузки промежутка : 500 мс.

_________________
Показать сообщения:    

Текущее время: Сегодня 05:50

Часовой пояс: GMT



Вы не можете начинать темы
Вы не можете отвечать на сообщения
Вы не можете редактировать свои сообщения
Вы не можете удалять свои сообщения
Вы не можете голосовать в опросах
Вы не можете прикреплять файлы к сообщениям
Вы не можете скачивать файлы