Ивановский Торрент трекер
Яндекс.Погода
DL-List and Torrent activity
None
 
     
 
 

[Quote]
HUNTER

NG. Осушить океан: глубокое погружение (1 серия из 8) / Drain the Oceans: Deep Dive
Дата/Год выпуска: 2018
Страна: Великобритания, Австралия
Жанр: Документальный, исследования, история
Продолжительность: 1 х ~00:44:00
Перевод: Профессиональный (дублированный)
Телеканал: National Geographic
Описание: Представьте, что мы осушили океаны, позволили воде уйти и раскрыть тайны дна. А мы можем это сделать... С помощью новейших технологий подводного сканирования мы изучим глубокие океаны и превратим точные данные в трехмерные изображения. Мы увидим погрузившиеся в воду города, затонувшие корабли и другие удивительные чудеса, скрытые в глубинах океанов и морей, найдём затерянные миры, проникнем в эпическую историю человеческой цивилизации и историю планеты Земля. Исследуйте вместе с нами мир, который никто еще не видел, (потому что он скрыт от нас километровой толщей воды) - ландшафт морского дна. Присоединяйтесь к экспедициям, цель которых - поиск давно затонувших кораблей и ушедших под воду древних городов. Последуйте за учеными, исследующими самые глубокие и темные уголки подводного мира. Трехмерные карты, компьютерная графика и современные средства визуализации помогут вам впервые взглянуть на эти тайны океана.
Доп. информация: Авторство релиза - alf62

качество: HDTVRip
формат: AVI
Видео: 720x400 (1.80:1), 25 fps, XviD build 73 ~1899 kbps avg, 0.26 bit/pixel
Аудио: 48 kHz, AC3 Dolby Digital, 2/0 (L,R) ch, ~192.00 kbps avgОсушить океан / Drain the Oceans на rutracker.cr

Список выпусков/серий

1. Затонувшие города / Sunken Cities
Утраченные цивилизации, таинственные затонувшие города и легендарная Атлантида исчезнувшая под волнами. Может ли осушение океанов помочь открыть причину их гибели?

MediaInfo

Общее
Полное имя : D:\Запись\Осушить океан глубокое погружение\Осушить.океан.глубокое.погружение.2018.XviD.HDTVRip.alf62\01.Затонувшие.города.2018.XviD.HDTVRip.alf62.avi
Формат : AVI
Формат/Информация : Audio Video Interleave
Размер файла : 661 Мбайт
Продолжительность : 43 м.
Общий поток : 2101 Кбит/сек
Программа кодирования : VirtualDubMod 1.5.10.3 | www.virtualdub-fr.org || (build 2550/release)
Библиотека кодирования : VirtualDubMod build 2550/release
Видео
Идентификатор : 0
Формат : MPEG-4 Visual
Профиль формата : Advanced Simple@L5
Параметр BVOP формата : 2
Параметр QPel формата : Нет
Параметр GMC формата : Без точки перехода
Параметр матрицы формата : Default (MPEG)
Идентификатор кодека : XVID
Идентификатор кодека/Подсказка : XviD
Продолжительность : 43 м.
Битрейт : 1900 Кбит/сек
Ширина : 720 пикселей
Высота : 400 пикселей
Соотношение сторон : 16:9
Частота кадров : 25,000 кадров/сек
Цветовое пространство : YUV
Субдискретизация насыщенности : 4:2:0
Битовая глубина : 8 бит
Тип развёртки : Прогрессивная
Метод сжатия : С потерями
Бит/(Пиксели*Кадры) : 0.264
Размер потока : 598 Мбайт (90%)
Библиотека кодирования : XviD 73
Аудио
Идентификатор : 1
Формат : AC-3
Формат/Информация : Audio Coding 3
Расширение режима : CM (complete main)
Параметр Endianness формата : Big
Идентификатор кодека : 2000
Продолжительность : 43 м.
Вид битрейта : Постоянный
Битрейт : 192 Кбит/сек
Каналы : 2 канала
Расположение каналов : Front: L R
Частота : 48,0 КГц
Частота кадров : 31,250 кадров/сек (1536 spf)
Метод сжатия : С потерями
Размер потока : 60,4 Мбайт (9%)
Выравнивание : Разделение по промежуткам
Продолжительность промежутка : 40 мс. (1,00 видеокадр)
Время предзагрузки промежутка : 500 мс.


Display posts:    

Current time is: 25-May 11:34

All times are UTC ± 0


You cannot post new topics in this forum
You cannot reply to topics in this forum
You cannot edit your posts in this forum
You cannot delete your posts in this forum
You cannot vote in polls in this forum
You cannot attach files in this forum
You cannot download files in this forum

!ATTENTION!
The site does not give electronic versions of products, and is engaged only in a collecting and cataloguing of the references sent and published at a forum by our readers. If you are the legal owner of any submitted material and do not wish that the reference to it was in our catalogue, contact us and we shall immediately remove her. Files for an exchange on tracker are given by users of a site, and the administration does not bear the responsibility for their maintenance. The request to not fill in the files protected by copyrights, and also files of the illegal maintenance!