Важное объявление!
У Нас Все раздачи мультитрекерные, при нуле пиров в релизах, можете смело вставать на закачку!
Статистика раздачи
Размер:     |    Зарегистрирован:     |    Скачан:     |   
Нет
 
     
 
 
Автор Сообщение

HUNTER

Стаж:
5 лет 1 месяц
Сообщений:
68449

Репутация: 101

[+] [-]
Вне форума [Профиль] [ЛС]

NEXT A-Class / NEXT A-Class / Новый А-Класс
Страна: Япония
Год выпуска: 2010 г.
Жанр: приключения
Тип: ONA
Продолжительность: 6 мин
Режиссер: Нисикубо Мидзухо
Студия:
Описание: В ближайшем будущем, чтобы справиться с пробками и вертикализацией из-за увеличения населения, Токио был реконструирован в "изменяющийся город ". В нём дороги и вся городская структура, меняется в зависимости от времени.
И вот , молодая девушка по имени Нико, не зная чем бы заняться в свой долгожданный выходной, вдохновившись просмотренным фильмом, надеясь, что сегодня с ней случится что-нибудь интересьненькое... Как вдруг мимо неё, пролетает грузовичок, о котором все говорят в интернете. И как только она это увидела, побежала за ним, как вдруг её чуть не сбивает Mercedes-Benz A-Class'а, с 2-мя парнями Гатсу и Макито, и не успевает она опомниться, как они уже приследуют этот легендарный грузовичок, по изменчивым дорогам Токио....
Качество: HDTVRip
Тип релиза: Хардсаб
Формат видео: MP4
Наличие линковки: Нет
Видео: AVC ,1280x720, 30.000 fps, ~1 579 Kbps
Аудио: ACC , 192 Kbps, 44.1 KHz,2 channels Язык Русский (в составе контейнера) ; Озвучка: многоголосая, FullSpektor & Keinori & EJlEKTPO / RN-Media&Anikeit
Субтитры: Нет ; Перевод: Редактор/Оформление: Helge Переводчик: zverstal
Подробные тех. данные
Видео:Идентификатор : 1Формат : AVCФормат/Информация : Advanced Video CodecПрофиль формата : High@L3.1Параметр CABAC формата : YesПараметр ReFrames формата : 1 frameПараметр GOP формата : M=1, N=60Идентификатор кодека : avc1Идентификатор кодека/Информация : Advanced Video CodingПродолжительность : 6mn 5sБитрейт : 1 579 KbpsМаксимальный битрейт : 4 008 KbpsШирина : 1 280 pixelsВысота : 720 pixelsСоотношение сторон : 16:9Режим частоты кадров : ConstantЧастота кадров : 30.000 fpsЦветовое пространство : YUVСубдискретизация насыщенности : 4:2:0Битовая глубина : 8 bitsТип развёртки : ProgressiveБит/(Пиксели*Кадры) : 0.057Размер потока : 68.9 MiB (89%)Дата пометки : UTC 2014-06-07 00:12:17
Аудио:Идентификатор : 2Формат : AACФормат/Информация : Advanced Audio CodecПрофиль формата : LCИдентификатор кодека : 40Продолжительность : 6mn 5sВид битрейта : VariableБитрейт : 192 KbpsМаксимальный битрейт : 201 KbpsКаналы : 2 channelsРасположение каналов : Front: L RЧастота : 44.1 KHzМетод сжатия : LossyРазмер потока : 8.38 MiB (11%)Заголовок : IsoMedia File Produced by Google, 5-11-2011Дата кодирования : UTC 2014-06-07 00:12:16Дата пометки : UTC 2014-06-07 00:12:17
Отличия
http://rutracker.org/forum/viewtopic.php?t=4632208 - альтернативная озвучка
http://rutracker.org/forum/viewtopic.php?t=4256699 - альтернативная озвучка
СкриншотыСэмпл

_________________
Показать сообщения:    

Текущее время: Сегодня 19:28

Часовой пояс: GMT



Вы не можете начинать темы
Вы не можете отвечать на сообщения
Вы не можете редактировать свои сообщения
Вы не можете удалять свои сообщения
Вы не можете голосовать в опросах
Вы не можете прикреплять файлы к сообщениям
Вы не можете скачивать файлы