Ивановский Торрент трекер
Яндекс.Погода
 

[Quote]
HUNTER

Несчастный случай
Accident Man
Страна: Великобритания
Жанр: боевик, триллер, криминал
Год выпуска: 2018
Продолжительность: 01:45:29
Перевод: Профессиональный (многоголосый, закадровый) [Blu-ray EUR]
Субтитры: русские (форсированные, полные), английские (полные, SDH)
Оригинальная аудиодорожка: английский
Режиссер: Джесси Джонсон / Jesse Johnson
В ролях: Скотт Эдкинс, Рэй Стивенсон, Эшли Грин, Дэвид Пэймер, Майкл Джей Уайт, Рэй Парк, Эми Джонстон, Перри Бенсон, Ник Моран, Росс О’Хеннесси, Тим Ман, Leon Finnan
Описание:
Майк Фэллон известен тем, что превращает все свои убийства в несчастный случай. Но его отношение к делу полностью меняется, когда умирает его бывшая девушка.

Автор рипа: stalkerok
Сэмпл
Тип релиза: BDRip 720p [Accident Man (2018) Blu-ray Disc [EUR] -PCH]
Контейнер: MKV
Видео: 4174 Кбит/сек, 1280x536 (2.40:1), 23,976 кадр/сек, AVC
Аудио #1: русский, 640 Кбит/сек, 48 КГц, 5.1, AC3
Аудио #2: английский, 640 Кбит/сек, 48 КГц, 5.1, AC3
Формат субтитров: softsub (SRT)
Навигация по главам: есть

x264/MediaInfo

---[Information] [10.02.2018 23:25:18] x264 [info]: frame I:1326 Avg QP:13.85 size: 91134
---[Information] [10.02.2018 23:25:18] x264 [info]: frame P:33749 Avg QP:15.70 size: 41938
---[Information] [10.02.2018 23:25:18] x264 [info]: frame B:116677 Avg QP:18.47 size: 15134
Общее
Уникальный идентификатор : 218532914064861653956480624114597890970 (0xA467E8868E826B82B59D6AE4E9A80B9A)
Полное имя : M:\$new\Accident Man (2018)\Accident.Man.2018.BDRip.720p.RUS.ENG.stalkerok.new-team.mkv
Формат : Matroska
Версия формата : Version 4 / Version 2
Размер файла : 4,02 Гбайт
Продолжительность : 1 ч. 45 м.
Общий поток : 5456 Кбит/сек
Название фильма : Accident Man (2018) (Rip by stalkerok)
Дата кодирования : UTC 2018-02-10 21:20:40
Программа кодирования : mkvmerge v8.6.1 ('Flying') 64bit
Библиотека кодирования : libebml v1.3.3 + libmatroska v1.4.4
Видео
Идентификатор : 7
Формат : AVC
Формат/Информация : Advanced Video Codec
Профиль формата : [email protected]
Параметр CABAC формата : Да
Параметр ReFrames формата : 9 кадров
Идентификатор кодека : V_MPEG4/ISO/AVC
Продолжительность : 1 ч. 45 м.
Битрейт : 4174 Кбит/сек
Ширина : 1280 пикселей
Высота : 536 пикселей
Соотношение сторон : 2,40:1
Режим частоты кадров : Постоянный
Частота кадров : 23,976 (24000/1001) кадра/сек
Цветовое пространство : YUV
Субдискретизация насыщенности : 4:2:0
Битовая глубина : 8 бит
Тип развёртки : Прогрессивная
Бит/(Пиксели*Кадры) : 0.254
Размер потока : 3,08 Гбайт (76%)
Заголовок : Accident Man (2018) (Rip by stalkerok)
Библиотека кодирования : x264 core 152 r2851kMod ba24899
Настройки программы : cabac=1 / ref=9 / deblock=1:-3:-3 / analyse=0x3:0x133 / me=umh / subme=11 / psy=1 / fade_compensate=0.00 / psy_rd=1.00:0.00 / mixed_ref=1 / me_range=32 / chroma_me=1 / trellis=2 / 8x8dct=1 / cqm=0 / deadzone=21,11 / fast_pskip=0 / chroma_qp_offset=-2 / threads=12 / lookahead_threads=3 / sliced_threads=0 / nr=0 / decimate=1 / interlaced=0 / bluray_compat=0 / constrained_intra=0 / bframes=11 / b_pyramid=2 / b_adapt=2 / b_bias=0 / direct=3 / weightb=1 / open_gop=0 / weightp=2 / keyint=240 / keyint_min=23 / scenecut=40 / intra_refresh=0 / rc_lookahead=60 / rc=crf / mbtree=0 / crf=17.2000 / qcomp=0.65 / qpmin=0 / qpmax=69 / qpstep=4 / vbv_maxrate=50000 / vbv_bufsize=62500 / crf_max=0.0 / nal_hrd=none / filler=0 / ip_ratio=1.40 / pb_ratio=1.30 / aq=3:0.80
Default : Да
Forced : Нет
Аудио #1
Идентификатор : 5
Формат : AC-3
Формат/Информация : Audio Coding 3
Расширение режима : CM (complete main)
Параметр Endianness формата : Big
Идентификатор кодека : A_AC3
Продолжительность : 1 ч. 45 м.
Вид битрейта : Постоянный
Битрейт : 640 Кбит/сек
Каналы : 6 каналов
Расположение каналов : Front: L C R, Side: L R, LFE
Частота : 48,0 КГц
Частота кадров : 31,250 кадров/сек (1536 spf)
Метод сжатия : С потерями
Размер потока : 483 Мбайт (12%)
Язык : Russian
Default : Да
Forced : Нет
Аудио #2
Идентификатор : 6
Формат : AC-3
Формат/Информация : Audio Coding 3
Расширение режима : CM (complete main)
Параметр Endianness формата : Big
Идентификатор кодека : A_AC3
Продолжительность : 1 ч. 45 м.
Вид битрейта : Постоянный
Битрейт : 640 Кбит/сек
Каналы : 6 каналов
Расположение каналов : Front: L C R, Side: L R, LFE
Частота : 48,0 КГц
Частота кадров : 31,250 кадров/сек (1536 spf)
Метод сжатия : С потерями
Размер потока : 483 Мбайт (12%)
Язык : English
Default : Нет
Forced : Нет
Текст #1
Идентификатор : 1
Формат : UTF-8
Идентификатор кодека : S_TEXT/UTF8
Идентификатор кодека/Информация : UTF-8 Plain Text
Продолжительность : 1 ч. 22 м.
Битрейт : 0 бит/сек
Count of elements : 10
Размер потока : 400 байт (0%)
Заголовок : Forced
Язык : Russian
Default : Да
Forced : Нет
Текст #2
Идентификатор : 2
Формат : UTF-8
Идентификатор кодека : S_TEXT/UTF8
Идентификатор кодека/Информация : UTF-8 Plain Text
Продолжительность : 1 ч. 40 м.
Битрейт : 90 бит/сек
Count of elements : 1383
Размер потока : 66,5 Кбайт (0%)
Язык : Russian
Default : Нет
Forced : Нет
Текст #3
Идентификатор : 3
Формат : UTF-8
Идентификатор кодека : S_TEXT/UTF8
Идентификатор кодека/Информация : UTF-8 Plain Text
Продолжительность : 1 ч. 40 м.
Битрейт : 72 бит/сек
Count of elements : 1371
Размер потока : 53,5 Кбайт (0%)
Язык : English
Default : Нет
Forced : Нет
Текст #4
Идентификатор : 4
Формат : UTF-8
Идентификатор кодека : S_TEXT/UTF8
Идентификатор кодека/Информация : UTF-8 Plain Text
Продолжительность : 1 ч. 43 м.
Битрейт : 76 бит/сек
Count of elements : 1527
Размер потока : 57,5 Кбайт (0%)
Заголовок : SDH
Язык : English
Default : Нет
Forced : Нет
Меню
00:00:00.000 : en:Chapter 1
00:06:02.153 : en:Chapter 2
00:15:28.844 : en:Chapter 3
00:17:56.366 : en:Chapter 4
00:21:30.455 : en:Chapter 5
00:28:05.558 : en:Chapter 6
00:33:13.157 : en:Chapter 7
00:42:36.554 : en:Chapter 8
00:46:16.273 : en:Chapter 9
00:53:10.729 : en:Chapter 10
00:58:43.144 : en:Chapter 11
01:05:58.871 : en:Chapter 12
01:11:50.306 : en:Chapter 13
01:15:08.378 : en:Chapter 14
01:26:46.201 : en:Chapter 15
01:33:46.203 : en:Chapter 16

Скриншоты



Display posts:    

Current time is: 13-Jul 10:30

All times are UTC ± 0


You cannot post new topics in this forum
You cannot reply to topics in this forum
You cannot edit your posts in this forum
You cannot delete your posts in this forum
You cannot vote in polls in this forum
You cannot attach files in this forum
You cannot download files in this forum

!ATTENTION!
The site does not give electronic versions of products, and is engaged only in a collecting and cataloguing of the references sent and published at a forum by our readers. If you are the legal owner of any submitted material and do not wish that the reference to it was in our catalogue, contact us and we shall immediately remove her. Files for an exchange on tracker are given by users of a site, and the administration does not bear the responsibility for their maintenance. The request to not fill in the files protected by copyrights, and also files of the illegal maintenance!