Ивановский Торрент трекер
Яндекс.Погода
DL-List and Torrent activity
None
 
     
 
 

[Quote]
HUNTER

Необыкновенное путешествие Серафимы
Страна: Россия
Жанр: мультфильм, фэнтези, приключения, пропаганда православия
Продолжительность: 01:14:57
Год выпуска: 2015
Перевод: Не требуется
Русские субтитры: нет
Режиссёр: Сергей Антонов
Роли озвучивали: Александр Михайлов
Алина Михайлова
Виктория Дробина
Вера Васильева
Анастасия Бартяева
Владимир Левашёв
Наталья Грачёва
Анна Волкова
Анна Мещан
Елена Кищик
Описание: Главная героиня, девочка по имени Серафима Воскресенская, видит сон про празднование Вербного Воскресенья (Входа Господня в Иерусалим) в церкви, где священником служит её отец. Сон заканчивается тем, что отца уводят чекисты, а храм, где шла служба, взрывают.
Сима просыпается в детском доме среди других таких же девочек, разных по происхождению. Отношения между девочками складываются сложно, в эти отношения активно вмешивается воспитательница, которая покровительствует одним и преследует других, в частности Серафиму. Заведующий детским домом, пришедший с войны инвалидом, пытается разобраться в отношениях детей. Время, к которому относится действие мультфильма, известно из отрывного календаря в кабинете заведующего, куда то и дело попадает главная героиня. Это время — предпасхальная неделя 1943 года.
Обнаружив, что Серафима Воскресенская верующая и носит нательный крест, воспитательница с помощью заведующего детским домом оформляет бумаги на то, чтобы отправить её в колонию. Девочка отказывается отречься от веры и в Пасху ждёт машину, которая должна забрать её из детдома. Но вместо этого приезжает её мама.
За описание спасибо ViktorMzz.
Доп. информация: https://www.kinopoisk.ru/film/893199/
Семпл: http://sendfile.su/1457025
Качество: WEB-DLRip исходник WEB-DL (1080p) был найден в сети
Формат: AVI
Видео: 720x400 (1.80:1), 24 fps, XviD build 73 ~1261 kbps avg, 0.18 bit/pixel
Аудио: 48 kHz, MPEG Layer 3, 2 ch, ~128.00 kbps avg
Субтитры: отсутствуют

Подробные технические данные

File: Neobiknovennoe puteshestvie Serafimi 2015 WEB-DLRip 750 MB.avi
Title: Neobiknovennoe puteshestvie Serafimi 2015 WEB-DLRip 750 MB
Comment: Mordovian God
FileSize: 750.17 Mb ( 786 614 272 bytes )
Play length: 01:14:57.500 (107940 frames)
Subtitles: Not Present
Video: 720x400 (1.80:1), 24 fps, XviD build 73 ~1261 kbps avg, 0.18 bit/pixel
Audio: 48 kHz, MPEG Layer 3, 2 ch, ~128.00 kbps avg-General
Complete name : S:\Neobiknovennoe puteshestvie Serafimi 2015 WEB-DLRip 750 MB.avi
Format : AVI
Format/Info : Audio Video Interleave
File size : 750 MiB
Duration : 1h 14mn
Overall bit rate : 1 399 Kbps
Movie name : Neobiknovennoe puteshestvie Serafimi 2015 WEB-DLRip 750 MB
Writing application : VirtualDubMod 1.5.10.3 (build 2550/release)
Comment : Mordovian God
Video
ID : 0
Format : MPEG-4 Visual
Format profile : Advanced Simple@L5
Format settings, BVOP : 1
Format settings, QPel : No
Format settings, GMC : No warppoints
Format settings, Matrix : Custom
Codec ID : DX50
Codec ID/Hint : DivX 5
Duration : 1h 14mn
Bit rate : 1 262 Kbps
Width : 720 pixels
Height : 400 pixels
Display aspect ratio : 16:9
Frame rate : 24.000 fps
Color space : YUV
Chroma subsampling : 4:2:0
Bit depth : 8 bits
Scan type : Progressive
Compression mode : Lossy
Bits/(Pixel*Frame) : 0.183
Stream size : 677 MiB (90%)
Writing library : XviD 73
Audio
ID : 1
Format : MPEG Audio
Format version : Version 1
Format profile : Layer 3
Mode : Joint stereo
Mode extension : MS Stereo
Codec ID : 55
Codec ID/Hint : MP3
Duration : 1h 14mn
Bit rate mode : Constant
Bit rate : 128 Kbps
Channel(s) : 2 channels
Sampling rate : 48.0 KHz
Compression mode : Lossy
Stream size : 68.6 MiB (9%)
Alignment : Aligned on interleaves
Interleave, duration : 42 ms (1.00 video frame)
Interleave, preload duration : 504 ms
Writing library : LAME3.100Є


Display posts:    

Current time is: 22-Apr 14:17

All times are UTC ± 0


You cannot post new topics in this forum
You cannot reply to topics in this forum
You cannot edit your posts in this forum
You cannot delete your posts in this forum
You cannot vote in polls in this forum
You cannot attach files in this forum
You cannot download files in this forum

!ATTENTION!
The site does not give electronic versions of products, and is engaged only in a collecting and cataloguing of the references sent and published at a forum by our readers. If you are the legal owner of any submitted material and do not wish that the reference to it was in our catalogue, contact us and we shall immediately remove her. Files for an exchange on tracker are given by users of a site, and the administration does not bear the responsibility for their maintenance. The request to not fill in the files protected by copyrights, and also files of the illegal maintenance!