Важное объявление!
У Нас Все раздачи мультитрекерные, при нуле пиров в релизах, можете смело вставать на закачку!
 
Автор Сообщение

HUNTER

Стаж:
4 года 4 месяца
Сообщений:
56722

Репутация: 101

[+] [-]
Вне форума [Профиль] [ЛС]

-Need for Speed: Жажда скорости / Need for Speed-
  • Год выхода: 2014
  • Страна: США
  • Жанр: Боевик, триллер, драма, криминал
  • Продолжительность: 02:10:42
  • Перевод: Дублированный [Лицензия]
  • Субтитры: Русские, английские
-
  • Режиссёр:
    Скотт Во
-
  • В ролях:
    Дакота Джонсон, Скотт Мескади, Ник Чинланд, Майкл Китон, Рамон Родригес, Доминик Купер, Имоджен Путс, Рами Малек, Сэр Маджор, Аарон Пол
-
  • Описание:
    История Тоби Маршалла, гениального автомеханика, чьей единственной отдушиной является участие в подпольных гонках. Чтобы сохранить семейную мастерскую, Тоби вынужден взять в партнеры богатого и заносчивого бывшего гонщика NASCAR Дино Брюстера. Когда дела Тоби наконец-то начинают идти в гору, Дино подставляет партнера, и Тоби обвиняют в преступлении, которого он не совершал. Спустя два года Тоби выходит из тюрьмы с мыслью о мести. Чтобы достичь своей цели, ему придется совершить невозможное и доказать, что даже в мире броских суперкаров самый невзрачный гонщик может финишировать первым.
-
  • Качество: HDRip-AVC |BDRip 1080p|
  • Формат: MKV
  • Видео кодек: H.264
  • Аудио кодек: AC3
  • Видео: AVC, 1024x432 (2.35:1), 23.976 fps, 2 757 Kbps (0.260 bit/pixel)
  • Аудио: AC-3, 48.0 KHz, 6 ch, 448 Kbps, CBR|Russian|
-

Скриншоты

МедиаИнфо

Общее
Уникальный идентификатор : 200968473581956081058252257984694843906 (0x97311EBFDA19641595F1FD5C52C5FA02)
Полное имя : D:\Шара\Need for Speed.Zhazhda skorosti.(2014).HDRip-AVC...venxxx...-001.mkv
Формат : Matroska
Версия формата : Version 2
Размер файла : 2,91 Гбайт
Продолжительность : 2 ч. 10 м.
Общий поток : 3185 Кбит/сек
Дата кодирования : UTC 2014-09-02 04:37:50
Программа кодирования : mkvmerge v7.0.0 ('Where We Going') 32bit built on Jun 9 2014 15:08:34
Библиотека кодирования : libebml v1.3.0 + libmatroska v1.4.1
DURATION : 02:02:13.644000000
NUMBER_OF_FRAMES : 1365
NUMBER_OF_BYTES : 44045
_STATISTICS_WRITING_APP : mkvmerge v7.0.0 ('Where We Going') 32bit built on Jun 9 2014 15:08:34
_STATISTICS_WRITING_DATE_UTC : 2014-09-02 04:37:50
_STATISTICS_TAGS : BPS DURATION NUMBER_OF_FRAMES NUMBER_OF_BYTES
Видео
Идентификатор : 1
Формат : AVC
Формат/Информация : Advanced Video Codec
Профиль формата : Baseline@L3.1
Параметр CABAC формата : Нет
Параметр ReFrames формата : 1 кадр
Идентификатор кодека : V_MPEG4/ISO/AVC
Продолжительность : 2 ч. 10 м.
Битрейт : 2757 Кбит/сек
Ширина : 1024 пикселя
Высота : 432 пикселя
Соотношение сторон : 2,40:1
Режим частоты кадров : Постоянный
Частота кадров : 23,976 кадра/сек
Цветовое пространство : YUV
Субдискретизация насыщенности : 4:2:0
Битовая глубина : 8 бит
Тип развёртки : Прогрессивная
Бит/(Пиксели*Кадры) : 0.260
Размер потока : 2,44 Гбайт (84%)
Библиотека кодирования : x264 core 142 r2431 ac76440
Настройки программы : cabac=0 / ref=1 / deblock=0:0:0 / analyse=0:0 / me=dia / subme=0 / psy=1 / psy_rd=1.00:0.00 / mixed_ref=0 / me_range=16 / chroma_me=1 / trellis=0 / 8x8dct=0 / cqm=0 / deadzone=21,11 / fast_pskip=1 / chroma_qp_offset=0 / threads=12 / lookahead_threads=2 / sliced_threads=0 / nr=0 / decimate=1 / interlaced=0 / bluray_compat=0 / constrained_intra=0 / bframes=0 / weightp=0 / keyint=240 / keyint_min=23 / scenecut=0 / intra_refresh=0 / rc=2pass / mbtree=0 / bitrate=2757 / ratetol=1.0 / qcomp=0.60 / qpmin=0 / qpmax=69 / qpstep=4 / cplxblur=20.0 / qblur=0.5 / ip_ratio=1.40 / aq=0
Default : Да
Forced : Нет
Аудио
Идентификатор : 2
Формат : AC-3
Формат/Информация : Audio Coding 3
Расширение режима : CM (complete main)
Параметр Endianness формата : Big
Идентификатор кодека : A_AC3
Продолжительность : 2 ч. 10 м.
Вид битрейта : Постоянный
Битрейт : 448 Кбит/сек
Каналы : 6 каналов
Расположение каналов : Front: L C R, Side: L R, LFE
Частота : 48,0 КГц
Битовая глубина : 16 бит
Метод сжатия : С потерями
Размер потока : 419 Мбайт (14%)
Язык : Russian
Default : Да
Forced : Нет
Текст #1
Идентификатор : 3
Формат : UTF-8
Идентификатор кодека : S_TEXT/UTF8
Идентификатор кодека/Информация : UTF-8 Plain Text
Заголовок : Russian
Язык : Russian
Default : Нет
Forced : Нет
Текст #2
Идентификатор : 4
Формат : UTF-8
Идентификатор кодека : S_TEXT/UTF8
Идентификатор кодека/Информация : UTF-8 Plain Text
Заголовок : English
Язык : English
Default : Нет
Forced : Нет
Меню
00:00:00.000 : en:00:00:00.000
00:03:54.734 : en:00:03:54.734
00:07:49.759 : en:00:07:49.759
00:14:28.033 : en:00:14:28.033
00:20:43.532 : en:00:20:43.532
00:26:18.159 : en:00:26:18.159
00:28:45.973 : en:00:28:45.973
00:37:46.472 : en:00:37:46.472
00:42:07.608 : en:00:42:07.608
00:50:33.612 : en:00:50:33.612
00:56:00.481 : en:00:56:00.481
01:05:09.864 : en:01:05:09.864
01:12:09.323 : en:01:12:09.323
01:18:21.029 : en:01:18:21.029
01:25:07.143 : en:01:25:07.143
01:32:55.653 : en:01:32:55.653
01:36:38.082 : en:01:36:38.082
01:39:49.440 : en:01:39:49.440
01:49:47.872 : en:01:49:47.872
01:55:41.684 : en:01:55:41.684
02:02:22.752 : en:02:02:22.752
-Источник:

_________________
Показать сообщения:    

Текущее время: Сегодня 17:50

Часовой пояс: GMT



Вы не можете начинать темы
Вы не можете отвечать на сообщения
Вы не можете редактировать свои сообщения
Вы не можете удалять свои сообщения
Вы не можете голосовать в опросах
Вы не можете прикреплять файлы к сообщениям
Вы не можете скачивать файлы