Важное объявление!
У Нас Все раздачи мультитрекерные, при нуле пиров в релизах, можете смело вставать на закачку!
 
Автор Сообщение

HUNTER

Стаж:
4 года 4 месяца
Сообщений:
56733

Репутация: 101

[+] [-]
Вне форума [Профиль] [ЛС]

Need for Speed: Жажда скорости / Need for Speed
«Тормоза придумал трус»
--
Год выпуска: 2014
Страна: США / Bandito Brothers, DreamWorks SKG, Electronic Arts, Reliance Entertainment
Жанр: боевик, триллер, драма, криминал
Продолжительность: 02:10:42
Озвучивание: Дублированное [Лицензия Blu-Ray EUR3D]
Субтитры: Отсутствуют-В ролях:
Дакота Джонсон, Скотт Мескади, Ник Чинланд, Майкл Китон, Рамон Родригес, Доминик Купер, Имоджен Путс, Рами Малек, Сэр Маджор, Аарон Пол-Режиссёр:
Скотт Во-Описание:
История Тоби Маршалла, гениального автомеханика, чьей единственной отдушиной является участие в подпольных гонках. Чтобы сохранить семейную мастерскую, Тоби вынужден взять в партнеры богатого и заносчивого бывшего гонщика NASCAR Дино Брюстера. Когда дела Тоби наконец-то начинают идти в гору, Дино подставляет партнера, и Тоби обвиняют в преступлении, которого он не совершал. Спустя два года Тоби выходит из тюрьмы с мыслью о мести. Чтобы достичь своей цели, ему придется совершить невозможное и доказать, что даже в мире броских суперкаров самый невзрачный гонщик может финишировать первым.-Качество: BDRip 1080p
Формат: MKV
Формат 3D: Crop OverUnder / Вертикальная анаморфная стереопара [Без чёрных полос!]
Порядок ракурсов: левый ракурс первый
Видео кодек: AVC
Аудио кодек: AC3
Видео: AVC, 1920x1080 (16:9), 23.976 fps, 12.3 Mbps (0.248 bit/pixel)
Аудио: AC-3, 48.0 KHz, 6 ch, 640 Kbps, CBR (Russian) - Дубляж | Blu-Ray EUR3D
Аудио: AC-3, 48.0 KHz, 6 ch, 640 Kbps, CBR (English) - Original | Blu-Ray EUR3D--

Рейтинг

Трейлер

--

Media info:

Код: copyText_writeLink('this.parentNode.parentNode.nextSibling.nextSibling');
Код:
Общее
Уникальный идентификатор : 213180730918776650287429807948661655375 (0xA0611D85E467D5F886CDDBE7B8FA074F)
Полное имя : F:\my films\NEED_FOR_SPEED_3D.mkv
Формат : Matroska
Версия формата : Version 2
Размер файла : 12,7 Гбайт
Продолжительность : 2 ч. 10 м.
Общий поток : 13,9 Мбит/сек
Название фильма : NEED_FOR_SPEED_3D_Crop_O/U
Дата кодирования : UTC 2014-07-19 04:37:07
Программа кодирования : mkvmerge v5.3.0 ('I could have danced') built on Feb 9 2012 10:38:07
Библиотека кодирования : libebml v1.2.3 + libmatroska v1.3.0
Видео
Идентификатор : 1
Формат : AVC
Формат/Информация : Advanced Video Codec
Профиль формата : High@L4.1
Параметр CABAC формата : Да
Параметр ReFrames формата : 4 кадра
Идентификатор кодека : V_MPEG4/ISO/AVC
Продолжительность : 2 ч. 10 м.
Битрейт : 12,3 Мбит/сек
Ширина : 1920 пикселей
Высота : 1080 пикселей
Соотношение сторон : 16:9
Режим частоты кадров : Постоянный
Частота кадров : 23,976 кадра/сек
Цветовое пространство : YUV
Субдискретизация насыщенности : 4:2:0
Битовая глубина : 8 бит
Тип развёртки : Прогрессивная
Бит/(Пиксели*Кадры) : 0.248
Размер потока : 11,3 Гбайт (89%)
Заголовок : rip by I/N
Библиотека кодирования : x264 core 128 r2216M 198a7ea
Настройки программы : cabac=1 / ref=4 / deblock=1:-3:-3 / analyse=0x3:0x133 / me=umh / subme=10 / psy=1 / psy_rd=1.00:0.15 / mixed_ref=1 / me_range=32 / chroma_me=1 / trellis=2 / 8x8dct=1 / cqm=0 / deadzone=21,11 / fast_pskip=1 / chroma_qp_offset=-3 / threads=8 / lookahead_threads=1 / sliced_threads=0 / nr=0 / decimate=1 / interlaced=0 / bluray_compat=0 / constrained_intra=0 / bframes=6 / b_pyramid=2 / b_adapt=2 / b_bias=0 / direct=3 / weightb=1 / open_gop=0 / weightp=2 / keyint=230 / keyint_min=23 / scenecut=40 / intra_refresh=0 / rc_lookahead=60 / rc=crf / mbtree=1 / crf=17.0 / qcomp=0.60 / qpmin=0 / qpmax=69 / qpstep=4 / vbv_maxrate=40000 / vbv_bufsize=30000 / crf_max=30.0 / nal_hrd=none / ip_ratio=1.40 / aq=1:1.00
Default : Да
Forced : Нет
Аудио #1
Идентификатор : 2
Формат : AC-3
Формат/Информация : Audio Coding 3
Расширение режима : CM (complete main)
Параметр Endianness формата : Big
Идентификатор кодека : A_AC3
Продолжительность : 2 ч. 10 м.
Вид битрейта : Постоянный
Битрейт : 640 Кбит/сек
Каналы : 6 каналов
Расположение каналов : Front: L C R, Side: L R, LFE
Частота : 48,0 КГц
Битовая глубина : 16 бит
Метод сжатия : С потерями
Размер потока : 599 Мбайт (5%)
Заголовок : Дубляж
Язык : Russian
Default : Да
Forced : Нет
Аудио #2
Идентификатор : 3
Формат : AC-3
Формат/Информация : Audio Coding 3
Расширение режима : CM (complete main)
Параметр Endianness формата : Big
Идентификатор кодека : A_AC3
Продолжительность : 2 ч. 10 м.
Вид битрейта : Постоянный
Битрейт : 640 Кбит/сек
Каналы : 6 каналов
Расположение каналов : Front: L C R, Side: L R, LFE
Частота : 48,0 КГц
Битовая глубина : 16 бит
Метод сжатия : С потерями
Размер потока : 599 Мбайт (5%)
Заголовок : Original
Язык : English
Default : Нет
Forced : Нет
Меню
00:00:00.000 : en:(01)00:00:00:000
00:03:54.734 : en:(02)00:03:54:734
00:07:49.760 : en:(03)00:07:49:760
00:14:28.033 : en:(04)00:14:28:033
00:20:43.533 : en:(05)00:20:43:533
00:26:18.159 : en:(06)00:26:18:159
00:28:45.974 : en:(07)00:28:45:974
00:37:46.472 : en:(08)00:37:46:472
00:42:07.608 : en:(09)00:42:07:608
00:50:33.613 : en:(10)00:50:33:613
00:56:00.482 : en:(11)00:56:00:482
01:05:09.864 : en:(12)01:05:09:864
01:12:09.325 : en:(13)01:12:09:325
01:18:21.029 : en:(14)01:18:21:029
01:25:07.143 : en:(15)01:25:07:143
01:32:55.653 : en:(16)01:32:55:653
01:36:38.083 : en:(17)01:36:38:083
01:39:49.441 : en:(18)01:39:49:441
01:49:47.872 : en:(19)01:49:47:872
01:55:41.684 : en:(20)01:55:41:684
02:02:22.752 : en:(21)02:02:22:752
02:10:52.094 : en:(22)02:10:52:094

Скриншоты

Внимание! Справа и слева у видеоряда обрезано по 245р, что дает возможность просмотра на полный экран (без черных полос) на телевизорах с соотношением сторон 16:9 без изменения пропорций.-Источник:

_________________
Показать сообщения:    

Текущее время: Сегодня 20:10

Часовой пояс: GMT



Вы не можете начинать темы
Вы не можете отвечать на сообщения
Вы не можете редактировать свои сообщения
Вы не можете удалять свои сообщения
Вы не можете голосовать в опросах
Вы не можете прикреплять файлы к сообщениям
Вы не можете скачивать файлы